<?xml version="1.0" standalone="no"?>
<!DOCTYPE svg PUBLIC "-//W3C//DTD SVG 1.1//EN" "http://www.w3.org/Graphics/SVG/1.1/DTD/svg11.dtd" >
<svg xmlns="http://www.w3.org/2000/svg">
<metadata>Generated by IcoMoon</metadata>
<defs>
<font id="roberta_01" horiz-adv-x="1024">
<font-face units-per-em="1024" ascent="960" descent="-64" />
<missing-glyph horiz-adv-x="1024" />
<glyph unicode="&#x20;" d="" horiz-adv-x="512" />
<glyph unicode="&#x2665;" d="M384 96c399 314 384 425 384 512s-72 192-192 192-192-128-192-128-72 128-192 128-192-105-192-192-15-198 384-512z" horiz-adv-x="768" />
<glyph unicode="&#x26a1;" d="M640 512h-256l192 448-576-576h256l-192-448 576 576z" horiz-adv-x="640" />
<glyph unicode="&#xe600;" d="M633.121 509.661l47.895-27.378 95.821 54.755-143.717 85.54zM923.992 684.208l34.222 61.584c27.362 47.926-51.318 102.681-88.977 123.184-37.659 20.548-123.184 65.037-150.561 13.689l-47.926-82.133c-47.926 10.267-102.681 17.111-157.421 17.111-284.042 0.015-513.329-153.999-513.329-342.219 0-188.19 229.287-342.189 513.329-342.189 0 0 0 0 3.437 0 3.422-41.066-44.489-109.51-112.948-143.717 270.384 0 393.568 201.909 393.568 201.909 136.872 61.599 225.85 164.265 225.85 284.042 6.844 78.68-34.222 150.546-99.244 208.739zM236.116 379.602c-27.378 0-47.911 20.564-47.911 47.941s20.533 47.911 47.911 47.911 47.911-20.533 47.911-47.911c0-27.378-23.925-47.941-47.911-47.941zM362.737 379.602c-27.378 0-47.911 20.564-47.911 47.941s20.533 47.911 47.911 47.911 47.911-20.533 47.911-47.911c0-27.378-20.533-47.941-47.911-47.941zM489.374 379.602c-27.378 0-47.926 20.564-47.926 47.941s20.548 47.911 47.926 47.911 47.911-20.533 47.911-47.911c0-27.378-20.533-47.941-47.911-47.941zM793.964 526.772l-99.244-54.755-82.148-44.473v205.316l136.903 236.131c6.829 13.689 54.755 0 106.073-27.378s85.555-61.584 75.288-75.288l-136.872-239.554z" />
<glyph unicode="&#xe601;" d="M950.949 606.192c-4.141 31.128-4.725 84.743 24.188 102.746 0.516 0.33 0.902 0.807 1.354 1.216 23.638 7.561 39.997 18.171 27.156 32.449l-348.695 105.065-564.617-78.499c0 0-64.656-9.241-58.88-109.692 3.135-54.672 20.283-81.522 35.278-94.736l-46.332-13.963c-12.86-14.278 3.496-24.891 27.137-32.439 0.449-0.422 0.828-0.895 1.354-1.225 28.894-18.018 28.338-71.626 24.182-102.761-103.803-29.475-66.541-39.080-66.541-39.080l22.77-5.51c-16.016-14.473-31.923-41.919-28.943-93.972 5.779-100.432 58.886-107.363 58.886-107.363l369.482-120.095 557.689 135.081c0 0 37.274 9.62-66.557 39.098-4.174 31.086-4.755 84.688 24.207 102.752 0.532 0.321 0.92 0.807 1.351 1.21 23.641 7.561 39.985 18.162 27.14 32.439l-24.24 7.319c16.166 9.749 40.449 35.226 44.254 101.407 2.625 45.522-9.25 72.183-22.996 87.878l47.912 11.594c0.003-0.018 37.277 9.602-66.538 39.080zM484.476 607.479l457.932 94.115c-15.087-27.614-14.455-65.404-11.958-89.693 0.547-5.495 1.177-10.513 1.788-14.327l-451.704-112.363 3.942 122.267zM81.626 509.739l457.91-94.115 3.933-122.27-451.667 112.36c0.596 3.82 1.225 8.832 1.797 14.342 2.481 24.271 3.126 62.070-11.973 89.684zM63.284 664.311c-0.571 26.719 4.19 46.042 13.813 55.864 6.124 6.271 13.352 7.576 18.308 7.576 2.619 0 4.505-0.364 4.633-0.364l364.654-118.884-3.982-123.123-358.474 100.496c-0.66 0.186-1.556 0.315-2.246 0.345-1.403 0.101-35.068 3.2-36.706 78.090zM429.609 101.675l-358.465 100.499c-0.663 0.193-1.549 0.321-2.24 0.354-1.427 0.095-35.107 3.19-36.736 78.062-0.581 26.752 4.205 46.057 13.81 55.888 6.139 6.271 13.37 7.576 18.318 7.576 2.625 0 4.505-0.351 4.642-0.351 0 0 0.015 0 0 0l364.629-118.903-3.958-123.126zM899.331 228.214c0.565-5.513 1.195-10.522 1.806-14.342l-451.713-112.372 3.948 122.27 96.573 19.855 14.262-3.45 53.455 17.373 293.644 60.353c-15.103-27.611-14.476-65.417-11.976-89.687zM924.213 394.384c-0.822-0.018-1.644-0.128-2.417-0.373l-358.456-100.496-3.967 123.123 364.131 118.756c0.034 0.015 13.556 3.019 23.482-7.075 9.608-9.822 14.375-29.145 13.813-55.864-1.681-74.866-35.361-77.977-36.586-78.072z" />
<glyph unicode="&#xe602;" d="M570.782 777.684h-349.075c-25.709 0-46.559-20.85-46.559-46.538s20.85-46.538 46.559-46.538h349.075c25.753 0 46.559 20.85 46.559 46.538-0.022 25.687-20.829 46.538-46.559 46.538zM617.319 556.609c0 25.709-20.807 46.538-46.559 46.538h-349.053c-25.709 0-46.559-20.85-46.559-46.538 0-25.709 20.85-46.559 46.559-46.559h349.075c25.731 0 46.538 20.85 46.538 46.559zM396.266 335.513c25.709 0 46.538 20.85 46.538 46.538 0 25.709-20.829 46.559-46.538 46.559h-174.559c-25.709 0-46.559-20.85-46.559-46.559s20.85-46.538 46.559-46.538h174.559zM747.607 177.185l-48.825-32.223v-115.865h-605.075v837.806h605.075v-183.928l93.097 161.247v69.24c0 25.709-20.85 46.538-46.559 46.538h-698.172c-25.709 0-46.538-20.85-46.538-46.538v-930.947c0-25.709 20.829-46.538 46.538-46.538h698.172c25.731 0 46.581 20.85 46.581 46.538v256.545l-22.245-38.476c-5.425-9.39-13.051-17.473-22.049-23.399zM1022.845 744.437c-0.959 4.183-10.785 41.788-70.002 75.994-59.218 34.184-96.692 23.901-100.831 22.615-5.556-1.765-10.24-5.512-13.159-10.567l-290.903-503.852c-1.808-3.159-2.876-6.667-3.094-10.284l-10.894-181.814c-0.523-8.802 3.965-17.125 11.569-21.548 7.669-4.401 17.103-4.096 24.467 0.719l152.010 100.352c3.028 1.961 5.534 4.641 7.342 7.756l290.925 503.939c2.919 5.055 3.813 10.981 2.571 16.689zM628.649 196.249c-7.734 6.253-16.515 12.157-25.949 17.626-9.477 5.469-18.977 10.066-28.258 13.682l3.246 54.512c12.135-1.59 30.132-6.514 52.987-19.674 22.833-13.181 36.058-26.341 43.553-36.036l-45.579-30.11zM325.109 120.451c1.525-9.347 12.31-12.244 19.521-15.251 6.972-2.941 15.295 2.636 21.090 5.447 35.513 17.277 83.619-3.028 121.66-3.028 22.506 0 22.506 34.903 0 34.903-44.359 0-81.266 11.22-125.233 3.965 0 2.549-0.937 5.991-3.682 10.676-8.214 14.053-18.672 18.040-29.151 16.34-0.697 1.656-1.373 3.312-2.353 4.989-2.745 4.488-6.58 6.732-10.894 7.669 12.266 21.439 20.175 44.119 12.135 62.464-2.462 5.578-9.456 8.432-15.077 8.65-23.312 0.871-43.313-23.596-58.303-38.28-37.496-36.755-70.525-78.478-102.487-120.004-13.726-17.844 16.624-35.186 30.132-17.648 28.323 36.777 58.324 72.486 90.613 105.886-7.778-12.767-16.035-25.295-24.729-37.365-12.419-19.195 17.234-35.535 30.132-17.626 3.072 4.684 6.972 8.061 11.242 10.959-0.85-2.157-1.721-4.27-2.593-6.449 0.044 0 0.087-0.022 0.131-0.044-0.675-1.394-1.351-2.789-1.895-4.118-7.8-19.543 21.33-28.498 31.918-13.421 2.68 3.791 5.164 7.843 7.408 12.092-0.153-2.919-0.218-6.841 0.414-10.806z" />
<glyph unicode="&#xe603;" d="M282.4 851.6c0-59.868-48.532-108.4-108.4-108.4s-108.4 48.532-108.4 108.4c0 59.868 48.532 108.4 108.4 108.4s108.4-48.532 108.4-108.4zM958.799 851.6c0-59.868-48.532-108.4-108.4-108.4s-108.4 48.532-108.4 108.4c0 59.868 48.532 108.4 108.4 108.4s108.4-48.532 108.4-108.4zM958.398 274c0-59.646-48.353-107.999-107.999-107.999s-107.999 48.353-107.999 107.999c0 59.646 48.353 107.999 107.999 107.999s107.999-48.353 107.999-107.999zM282.4 274c0-59.868-48.532-108.4-108.4-108.4s-108.4 48.532-108.4 108.4c0 59.868 48.532 108.4 108.4 108.4s108.4-48.532 108.4-108.4zM997.199 591.6c0 78.001-65.6 140.8-146.399 140.8-81.2 0-146.8-63.2-146.8-140.8v-51.2l-85.2-90.801h-210.8l-87.599 93.2v48.8c0 78.001-65.6 140.8-146.8 140.8s-146.8-63.2-146.8-140.8v-78.4h262.399l72.001-76.8v-170l-84.4-152c-26.4 25.199-62.799 40.8-102.801 40.8-81.2 0-146.8-63.2-146.8-140.8v-78.4h293.199v78.4c0 22.8-6 43.6-16 62.799l101.6 181.201h214.4l100.399-179.2c-10.4-19.6-17.2-41.2-17.2-64.8v-78.4h293.199v78.4c0 78.001-65.6 140.8-146.399 140.8-39.2 0-74.799-15.2-101.199-39.2l-93.2 166.801v144l80.799 86.4h260.4v78.4z" />
<glyph unicode="&#xe604;" d="M845.568 572.515c74.795 0 134.942 60.329 134.942 134.76 0 74.476-60.192 134.897-134.942 134.897-74.339 0-134.577-60.375-134.577-134.897 0-74.385 60.238-134.76 134.577-134.76zM953.768 550.564h-216.127c-32.081 0-59.097-24.78-67.403-58.093l-128.325-262.72c-1.825 0.137-3.377 1.050-5.248 1.050h-49.468c-1.825 0-3.423-0.958-5.157-1.050l-128.325 262.674c-8.26 33.313-35.23 58.139-67.357 58.139h-216.263c-38.653 0-70.095-35.458-70.095-78.948v-417.787h356.499v237.164l77.853-143.932c7.53-25.008 28.111-43.125 52.891-43.125h49.468c24.78 0 45.407 18.117 52.982 43.125l77.807 143.932v-237.164h356.499v417.787c-0.046 43.49-31.534 78.948-70.232 78.948zM178.341 572.515c74.339 0 134.577 60.329 134.577 134.76 0.046 74.522-60.192 134.897-134.577 134.897-74.704 0-134.942-60.375-134.942-134.897 0-74.385 60.238-134.76 134.942-134.76z" />
<glyph unicode="&#xe605;" d="M336.289 238.876c-106.921 107.707-146.426 282.435-98.666 426.306 56.802 171.191 279.487 207.945 433.185 175.122 250.398-53.853 205.193-395.252 102.99-555.633-2.752-4.324 26.927-2.752 32.037 5.503 73.704 115.372 105.348 264.157 66.629 397.414-38.916 134.044-171.387 182.197-299.928 178.070-128.934-4.127-260.029-44.223-339.237-151.929-102.793-140.137-39.899-372.846 72.329-486.056 6.289-6.289 36.164 5.7 30.661 11.203zM483.304 705.278c-63.681-19.261-123.037-46.188-143.674-114.586-22.603-75.473 16.706-166.081 29.089-240.375 0.983-5.896 33.806 1.376 32.43 8.648-16.313 97.093-75.080 227.599 13.955 305.038 82.352 71.542 205.193 42.454 258.653-40.685 33.806-52.674 26.927-120.875 8.845-177.284-1.769-5.307 29.482-1.769 32.037 6.093 50.905 158.219-62.305 304.055-231.334 253.15zM400.755 30.931c0.786-0.59 2.162-0.786 4.521-0.983 58.177-2.162 243.126-52.084 260.029 44.812 15.527 88.838 34.985 234.871-59.357 284.597-62.305 32.823-128.54 4.127-158.219-55.033-41.078-81.37-27.32-179.446-48.35-265.926-0.197-0.983 0-1.769 0.393-2.359 0.59-0.786-1.179-3.538 0.983-5.11zM474.656 305.701c14.741 32.43 36.361 53.46 68.791 50.512 0.393 0 0.59 0 0.983-0.197s-9.827-10.81-22.996-23.782c-10.22-10.22-21.62-21.62-34.395-34.395-13.169-13.169-20.048-9.041-12.382 7.862zM438.296 96.184c0.786 8.451 1.376 17.296 2.162 26.73 1.572 18.475 7.469 38.13 12.972 43.633s5.503 6.093 0.197 0.983c-5.503-4.914-9.238-1.179-8.058 8.255 0.983 9.631 13.169 27.516 26.927 40.095 6.289 5.7 12.579 11.596 18.868 17.296 13.562 12.579 26.927 32.43 30.661 44.026s-3.538 10.417-17.099-2.162c-9.238-8.451-18.279-17.099-27.516-25.551-13.562-12.579-23.192-14.151-20.834-3.341s15.527 29.678 29.089 42.454c15.134 14.151 30.464 28.499 45.598 42.454 13.562 12.775 39.899 21.030 56.015 11.596 58.964-34.002 57.588-124.413 52.281-187.504-2.555-31.447-2.555-64.663-8.058-95.521-6.289-35.771-95.324-27.32-156.253-20.048-18.475 2.162-22.799 14.741-9.631 27.909 1.376 1.376 2.752 2.752 4.324 4.324 13.169 13.169 24.372 29.482 25.158 36.361s-8.451 3.538-20.441-7.665c-11.989-11.203-17.886-18.279-25.551-25.354-8.058-6.683-12.382 2.555-10.81 21.030zM508.266 427.952c90.214-20.244 131.882 112.031 70.756 165.491-2.752 2.359-8.451 2.359-14.151 0.983-7.862-1.965-13.562-5.7-13.955-5.7-0.197 0-0.393 0-0.59 0-44.812 1.769-86.873-21.030-101.417-64.663-15.134-45.598 15.527-86.283 59.357-96.111zM571.553 540.769c1.965-8.648 2.948-17.493 3.145-26.337 0.59-22.603-9.827-73.115-40.292-71.542-1.376 0-2.555 0.197-3.734 0.393-1.965 0.393 0.197 4.521 5.11 9.238s5.307 12.972 2.359 18.868c-2.948 6.093-10.81 4.717-18.868-3.538s-17.493-12.775-21.030-9.434c-3.341 3.145 2.948 15.134 13.562 25.944s19.261 20.048 19.261 20.441-8.648-8.255-19.458-19.458c-10.81-10.613-19.851-19.261-20.244-18.672s8.451 10.22 19.458 21.423c11.203 11.203 20.637 35.968 29.285 52.084 8.845 16.313 28.106 14.937 31.447 0.59zM480.356 523.080c4.717 27.32 23.782 50.905 56.605 49.529 2.162 0 5.11 0.59 8.058 1.572 4.324 1.572 9.631 1.179 12.186-1.965s-2.162-11.793-10.024-19.065c-4.914-4.521-9.631-8.845-14.348-13.169-9.041-8.845-18.279-17.689-27.516-26.73-13.169-13.169-28.302-8.648-24.961 9.827zM499.618 177.554c-1.376-1.572-1.376-1.572 0 0 1.572 1.179 1.572 1.376 0 0z" horiz-adv-x="1097" />
<glyph unicode="&#xe606;" d="M977.12 535.808c-2.816 25.6-24.448 44.96-50.176 44.96h-158.080c-20.288 0-36.672-16.416-36.672-36.672v-270.816c-11.392 3.232-23.456 5.024-36 5.024-5.376 0-16-0.864-16-0.864v308.032c0 16.096-13.056 29.152-29.152 29.152h-30.656v65.504l-5.408 0.992c-42.912 7.712-86.912 7.36-129.824-0.992v-65.536h-283.008c-94.24 0-170.72-76.896-170.72-171.104v-211.136c-17.92 0-32.448-14.528-32.448-32.448v-31.584c0-16.32 13.216-29.568 29.568-29.568h25.824c0.064-0.192 0.064-0.416 0.096-0.64 7.36-62.592 61.856-111.36 127.84-111.36 65.888 0 120.416 48.768 127.744 111.36 0.032 0.224 0.032 0.448 0.128 0.64h258.112c0.032-0.192 0.032-0.416 0.064-0.64 7.392-62.592 61.92-111.36 127.808-111.36 65.952 0 120.512 48.768 127.744 111.36 0.096 0.224 0.128 0.448 0.128 0.64h131.776c18.656 0 33.824 15.136 33.824 33.824 7.008 0 13.696 3.008 18.368 8.224 4.672 5.248 6.912 12.192 6.144 19.2l-37.024 335.808zM257.696 436.48h58.496v59.776h67.584v-59.776h59.776v-67.616h-59.776v-58.496h-67.584v58.496h-58.496v67.616zM182.304 99.968c-30.56 0-55.456 23.552-55.456 52.544 0 28.96 24.896 52.512 55.456 52.512 30.528 0 55.36-23.552 55.36-52.512 0.032-28.992-24.832-52.544-55.36-52.544zM567.904 143.648v0 0zM780.32 493.376c0 20.256 16.416 36.672 36.672 36.672h79.136c17.6 0 32.288-13.344 33.984-30.88l15.744-165.568c0.96-10.272-2.432-20.512-9.376-28.16s-16.8-12-27.168-12h-92.32c-20.288 0-36.672 16.448-36.672 36.672v163.264zM696.192 99.968c-30.528 0-55.36 23.552-55.36 52.544 0 28.96 24.8 52.512 55.36 52.512s55.36-23.552 55.36-52.512c0-28.992-24.8-52.544-55.36-52.544zM350.464 662.656h101.216c10.112 0 18.368 8.736 18.368 18.848s-8.256 18.816-18.368 18.816h-101.216c-10.144 0-18.304-8.704-18.304-18.816s8.16-18.848 18.304-18.848zM552.8 729.312c10.080 0 18.176 8.192 18.176 18.336v101.216c0 10.112-8.096 18.304-18.176 18.304-10.144 0-18.208-8.192-18.208-18.304v-101.216c0-10.144 8.064-18.336 18.208-18.336zM622.272 711.040c4.64 0 9.344 1.792 12.928 5.376l71.584 71.616c7.136 7.136 7.136 18.72 0 25.888-7.168 7.136-18.752 7.136-25.952 0l-71.552-71.584c-7.136-7.2-7.136-18.784 0-25.92 3.552-3.584 8.288-5.376 12.992-5.376zM474.592 716.416c3.552-3.552 8.256-5.376 12.928-5.376s9.312 1.792 12.896 5.376c7.232 7.168 7.232 18.72 0 25.92l-71.584 71.584c-7.168 7.136-18.752 7.136-25.856 0-7.2-7.168-7.2-18.752 0-25.888l71.616-71.616zM639.744 681.536c0-10.144 8.16-18.848 18.304-18.848h101.216c10.144 0 18.368 8.736 18.368 18.848s-8.224 18.816-18.368 18.816h-101.216c-10.144 0-18.304-8.704-18.304-18.816z" />
<glyph unicode="&#xe607;" d="M510.784 944.352c-269.408 0-488.64-219.232-488.64-488.64 0-232.576 163.424-427.616 381.472-476.672-25.184 24.32-42.848 56.256-49.312 92.096-151.648 61.92-258.816 210.912-258.816 384.576 0 167.84 100.128 312.64 243.744 378.016-5.696-32.416 18.624-69.76 46.304-103.264 25.056-30.304 14.304-53.184-5.024-69.184-6.080-5.024-8.384-13.312-5.76-20.768 2.624-7.424 9.6-12.448 17.472-12.576 248.864-3.712 309.376 137.792 323.136 188.928 125.696-71.456 210.656-206.528 210.656-361.152 0-164.448-96.096-306.88-235.072-374.112-4.288-36.416-20.096-69.248-43.616-94.944 203.136 59.264 352.032 247.040 352.032 469.056 0.064 269.408-219.136 488.64-488.576 488.64zM435.52 467.52c0-30.38-24.628-55.008-55.008-55.008s-55.008 24.628-55.008 55.008c0 30.38 24.628 55.008 55.008 55.008s55.008-24.628 55.008-55.008zM692.224 467.52c0-30.38-24.628-55.008-55.008-55.008s-55.008 24.628-55.008 55.008c0 30.38 24.628 55.008 55.008 55.008s55.008-24.628 55.008-55.008zM359.68 153.6c12.672 39.36 39.328 72.352 73.984 93.408 2.752 44.992 39.616 80.672 84.8 80.672 43.776 0 79.808-33.408 84.512-76.384 38.4-20.864 67.872-56.096 81.312-98.4 22.016 22.944 34.944 50.784 34.944 80.8 0 78.528-88.16 142.144-196.864 142.144-108.736 0-196.896-63.616-196.896-142.144 0-29.728 12.64-57.248 34.208-80.096zM540.8 158.752c-5.952 1.984-12.352 3.104-18.944 3.104-7.2 0-14.048-1.344-20.448-3.648 5.696-1.472 4.704-1.728-1.216-0.416-22.592-8.768-38.72-30.656-38.72-56.32 0-0.992 0.096-2.016 0.16-3.008 19.136-4.48 39.488-6.912 60.704-6.912 20.8 0 40.832 2.368 59.68 6.656 0.032 1.088 0.16 2.144 0.16 3.264 0.032 26.688-17.376 49.312-41.376 57.28zM520.064 302.464c-30.688 0-56.928-18.88-67.872-45.6 21.28 9.6 44.832 15.072 69.696 15.072 23.104 0 45.12-4.704 65.216-13.056-11.456 25.632-37.12 43.584-67.040 43.584zM521.888 253.536c-83.84 0-152.064-68.224-152.064-152.064 0-83.808 68.224-152.064 152.064-152.064 83.808 0 152.032 68.224 152.032 152.064 0 83.872-68.224 152.064-152.032 152.064zM521.888 22.784c-43.424 0-78.72 35.296-78.72 78.688s35.328 78.72 78.72 78.72c43.392 0 78.688-35.328 78.688-78.72s-35.296-78.688-78.688-78.688z" />
<glyph unicode="&#xe608;" d="M386.592 916.64c-24.96 24.96-58.848 39.008-94.176 39.008-35.296 0-69.184-14.016-94.144-39.008l-152.768-152.768c-24.96-24.96-39.008-58.848-38.976-94.144 0-35.328 14.016-69.184 39.008-94.144l76.384-76.384 341.056 341.056-76.384 76.384zM565.312 55.744l76.384-76.384c52-52 136.32-52 188.32 0l152.768 152.768c52.032 52 52.032 136.32 0.032 188.32l-76.384 76.384-341.12-341.088zM982.816 575.52c52 52 52 136.32 0 188.32l-152.768 152.8c-24.96 24.96-58.848 39.008-94.176 39.008s-69.184-14.016-94.144-39.008l-596.224-596.16c-52-52-52-136.32 0-188.32l152.768-152.768c52-52 136.32-52 188.32 0l596.224 596.128zM549.696 440.96c-11.744-11.808-30.816-11.808-42.592 0-11.776 11.776-11.776 30.848 0 42.624 11.776 11.808 30.848 11.808 42.592 0 11.84-11.776 11.84-30.848 0-42.624zM549.28 293.568c-11.744-11.744-30.848-11.744-42.624 0-11.776 11.776-11.776 30.88 0 42.656 11.744 11.776 30.848 11.776 42.624 0 11.84-11.776 11.84-30.88 0-42.656zM552.896 591.040c-11.776-11.776-30.816-11.776-42.624 0-11.776 11.776-11.776 30.848 0 42.624 11.808 11.84 30.88 11.84 42.624 0 11.776-11.744 11.776-30.848 0-42.624zM476.224 514.432c-11.744-11.808-30.816-11.808-42.592 0-11.84 11.776-11.84 30.848 0 42.624 11.776 11.808 30.848 11.808 42.592 0 11.776-11.776 11.776-30.848 0-42.624zM359.712 483.168c11.808 11.712 30.88 11.712 42.624 0 11.808-11.776 11.808-30.88 0-42.656-11.776-11.744-30.848-11.744-42.624 0s-11.776 30.88 0 42.656zM433.216 367.040c-11.808 11.744-11.808 30.848 0 42.624 11.744 11.776 30.848 11.776 42.624 0s11.776-30.88 0-42.624c-11.776-11.744-30.88-11.744-42.624 0zM699.84 444.096c-11.776-11.776-30.848-11.776-42.624 0-11.776 11.808-11.776 30.88 0 42.624 11.776 11.776 30.848 11.776 42.624 0 11.776-11.744 11.776-30.816 0-42.624zM626.368 517.6c-11.776-11.776-30.848-11.776-42.592 0-11.776 11.776-11.776 30.88 0 42.624 11.744 11.776 30.816 11.776 42.592 0 11.808-11.744 11.808-30.88 0-42.624zM580.608 410.080c11.744 11.808 30.816 11.808 42.624 0 11.776-11.744 11.776-30.816 0-42.592-11.808-11.808-30.88-11.808-42.624 0-11.84 11.776-11.84 30.848 0 42.592z" />
<glyph unicode="&#xe609;" d="M806.848 576.096c-13.6 3.904-28.096 4.128-42.272 4.672 3.872 9.952 106.432 264.256-164.352 365.056-0.128-2.272-0.32-4.576-0.672-6.752 173.984-104.576 93.472-272.064 86.912-279.392-47.968 36.928-107.872 58.88-172.896 58.88-66.176 0-127.104-22.752-175.456-60.928-11.904 19.68-21.184 42.080-27.104 66.784-4.8 43.232-1.792 82.080 17.056 122.272 18.656 36.608 48.704 67.552 84.48 87.808-0.416 1.984-0.736 4-0.992 6.080-39.68-16.032-75.808-42.88-108.192-77.504-14.080-19.68-98.336-121.024-45.056-275.744-14.368-0.512-28.64-2.016-42.72-4.672-56.032-11.904-145.088-60.096-187.040-142.944-14.048-23.712-19.584-47.872-26.208-71.232-6.784-46.816-5.312-91.84 6.88-132.896 1.792 1.088 3.552 2.112 5.376 3.072-6.432 40.576-1.024 83.456 16 120.768 19.648 39.872 48.128 66.4 84.928 89.536 61.984 29.056 114.048 20.992 116.192 20.64-1.376-11.488-2.176-23.168-2.176-35.072 0-113.568 67.040-211.712 163.616-257.152-0.512-1.344-0.992-2.72-1.44-4-1.792-3.264-91.2-148.832-264.064-83.776-1.536-1.632-3.168-3.2-4.832-4.736 21.216-16.32 201.696-137.28 367.904 66.752 7.52-0.672 15.136-1.088 22.848-1.088 4.64 0 9.248 0.192 13.856 0.352 35.104-48.8 169.6-199.808 372.256-72.576-1.696 1.568-3.328 3.168-4.8 4.8-180.864-67.52-265.984 88.864-266.944 91.552 107.584 48.896 169.664 143.968 169.664 259.872 0 9.984-0.544 19.744-1.504 29.472 0.384 0.064 0.704 0.16 1.12 0.256 35.168 2.4 72.832-4.416 109.728-21.76 36.8-23.2 65.28-49.76 84.928-89.6 16.992-37.344 22.432-80.128 15.968-120.768 1.856-0.928 3.616-1.888 5.376-3.040 14.784 46.432 51.776 272.928-206.368 347.008zM369.28 385.824c-0.128 0.128-0.32 0.384-0.48 0.544l0.384-0.416 0.096-0.128zM440 434.496c0 26.816 14.336 50.112 35.776 63.072 11.040 6.624 23.936 10.528 37.76 10.528 14.4 0 27.84-4.256 39.168-11.328 20.672-13.088 34.4-36 34.4-62.24 0-30.4-18.528-56.64-44.928-67.808-8.8-3.68-18.496-5.76-28.64-5.76-40.64-0.032-73.536 32.928-73.536 73.536zM513.536 641.28c43.936 0 84.672-13.888 118.208-37.344-37.28-26.4-151.776-67.936-239.872-2.496 34.176 25.024 76.224 39.84 121.664 39.84zM306.848 434.496c0 2.976 0.128 5.92 0.192 8.896 3.424-1.952 95.968-51.872 103.072-187.712-61.664 35.872-103.264 102.56-103.264 178.816zM612.352 252.992c0.064 3.488 7.648 128.544 107.808 186.4 0.032-1.6 0.128-3.232 0.128-4.896 0-78.176-43.68-146.368-107.936-181.504z" />
<glyph unicode="&#xe60a;" d="M1021.76 559.84c0 36.256-29.344 65.568-65.536 65.568s-65.536-29.312-65.536-65.568c0-17.216 6.72-32.832 17.6-44.544l-27.264-46.208c-4.512 0.992-9.184 1.568-14.016 1.568-26.496 0-49.248-15.744-59.584-38.4h-64.928c-9.6 20.992-29.888 36.064-53.92 38.080l-28.256 48.288c9.12 11.328 14.624 25.632 14.624 41.216 0 14.976-5.056 28.672-13.472 39.68l28.864 49.152c0.768-0.032 1.536-0.096 2.336-0.096 36.192 0 65.504 29.312 65.504 65.504s-29.312 65.536-65.504 65.536c-36.192 0-65.536-29.344-65.536-65.536 0-14.080 4.512-27.136 12.096-37.856l-29.44-50.848c-0.128 0-0.256 0-0.416 0-26.752 0-49.696-16.032-59.872-38.944l-72.896-0.416c-10.080 23.136-33.088 39.264-59.904 39.328l-28.736 49.632c11.328 11.808 18.336 27.776 18.336 45.44 0 15.168-5.152 28.992-13.792 40.128l27.104 46.72c34.752 1.6 62.464 30.208 62.464 65.408 0 36.192-29.344 65.504-65.536 65.504s-65.536-29.312-65.536-65.504c0-16.352 6.016-31.264 15.904-42.72l-25.984-44c-0.032 0-0.096 0-0.16 0-27.84 0-51.552-17.408-61.056-41.92h-75.424c-10.912 21.088-32.864 35.52-58.208 35.52-36.192 0-65.568-29.344-65.568-65.536s29.376-65.504 65.568-65.504c25.152 0 46.976 14.144 57.984 35.008h82.56c10.144-14.912 26.336-25.344 45.024-27.968l32.96-55.872c-8.512-11.072-13.6-24.832-13.6-39.904 0-15.744 5.6-30.208 14.88-41.504l-28.224-47.84c-25.152-1.152-46.592-16.512-56.512-38.24h-75.488c-10.336 22.656-33.088 38.4-59.584 38.4-36.192 0-65.568-29.376-65.568-65.568 0-15.808 5.664-30.368 15.040-41.728l-28.608-49.952c-35.136-1.184-63.264-29.984-63.264-65.408 0-36.192 29.344-65.536 65.536-65.536s65.536 29.344 65.536 65.536c0 15.808-5.568 30.272-14.88 41.568l28.512 50.080c23.008 0.832 42.944 13.472 54.016 32.064h82.048c10.24-17.248 28.128-29.408 49.024-31.712l30.592-52.864c-8.16-10.912-13.056-24.416-13.056-39.136 0-16.352 6.016-31.296 15.936-42.752l-30.4-52.544c-34.208-2.176-61.28-30.528-61.28-65.28 0-36.224 29.312-65.568 65.504-65.568s65.536 29.344 65.536 65.568c0 16.96-6.464 32.32-17.024 43.936l16.064 27.744c0 0 0.032-0.032 0.064-0.064l13.632 23.52c24.384 0.896 45.312 15.104 55.808 35.488h76.288c10.528-20.544 31.584-34.688 56.064-35.488l28.672-49.6c-11.456-11.776-18.528-27.84-18.528-45.568 0-36.224 29.344-65.568 65.568-65.568 36.192 0 65.536 29.344 65.536 65.568 0 33.92-25.856 61.856-58.88 65.152l-30.432 52.8c9.856 11.456 15.808 26.304 15.808 42.592 0 14.784-4.928 28.32-13.184 39.328l30.848 53.024c19.84 2.944 36.768 14.784 46.624 31.392h71.488c11.424-19.232 32.352-32.192 56.32-32.192 36.224 0 65.536 29.344 65.536 65.536 0 9.632-2.112 18.752-5.856 26.976l35.936 62.592c33.152 3.36 59.104 31.328 59.104 65.312zM609.376 311.264c-26.976 0-50.112-13.984-60.192-37.248h-72.512c-10.048 23.296-33.216 39.52-60.16 39.52-0.768 0-1.536-0.064-2.336-0.096l-26.24 46.24c11.328 11.744 18.336 27.808 18.336 45.408 0 16.672-6.272 31.904-16.544 43.424l26.528 45.856c0.096 0 0.16-0.032 0.256-0.032 25.408 0 47.392 14.496 58.272 35.648h76.288c10.496-20.48 31.424-34.624 55.776-35.488l26.528-46.432c-9.984-11.52-16.064-26.528-16.064-42.976 0-17.856 7.168-35.2 18.752-47.040l-26.592-46.816c0 0.032-0.064 0.032-0.096 0.032z" />
<glyph unicode="&#xe60b;" d="M564.192 901.6c-8.384 11.712-21.952 18.688-36.352 18.688-14.432 0-27.968-6.944-36.384-18.688-89.856-125.408-314.976-455.264-314.976-610.624 0-194.048 157.28-351.36 351.328-351.36 194.080 0 351.392 157.312 351.392 351.36 0.032 155.36-225.184 485.216-315.008 610.624zM404.448 92.096c-9.6-11.456-23.424-17.344-37.344-17.344-11.040 0-22.24 3.776-31.392 11.456-138.528 116.672-90.72 288.992-88.608 296.32 7.488 25.856 34.336 40.736 60.352 33.344 25.856-7.424 40.768-34.4 33.44-60.192-1.504-5.568-31.424-119.776 57.728-194.816 20.544-17.376 23.2-48.16 5.824-68.768zM500.352-4.832c-28.576 0-51.84 23.232-51.84 51.84 0 28.64 23.264 51.872 51.84 51.872 28.672 0 51.84-23.232 51.84-51.872s-23.2-51.84-51.84-51.84z" />
<glyph unicode="&#xe60c;" d="M924.064 463.2c-37.056 0-69.344-20.672-85.856-51.104l-118.304 11.040c-7.232 129.504-114.496 232.288-245.728 232.288-44.224 0-85.6-11.712-121.472-32.128l-88.128 112.512c16.128 22.144 25.728 49.472 25.728 79.008 0 74.048-60.096 134.080-134.112 134.080s-134.112-60.032-134.112-134.080c0-74.080 60.096-134.176 134.112-134.176 17.984 0 35.2 3.584 50.912 10.048l88.16-112.448c-41.632-44.128-67.264-103.584-67.264-169.024 0-50.176 15.104-96.832 40.832-135.776l-165.184-148.8c-8.448 3.104-17.6 4.8-27.168 4.8-43.232 0-78.432-35.104-78.432-78.464 0-43.296 35.2-78.464 78.432-78.464 43.36 0 78.464 35.2 78.464 78.464 0 6.656-0.8 13.152-2.4 19.296l165.184 148.864c42.56-35.040 96.96-56.128 156.448-56.128 115.584 0 212.64 79.84 239.040 187.328l116.736-10.88c11.456-41.216 49.184-71.456 94.112-71.456 53.888 0 97.6 43.712 97.6 97.664 0 53.792-43.712 97.536-97.6 97.536zM351.008 303.136c-5.472-2.912-11.328-4.256-17.088-4.256-9.344 0-18.496 3.712-25.344 10.272-2.688 2.624-5.056 5.632-6.912 9.152-66.56 125.696 2.528 202.304 5.472 205.536 6.016 6.496 13.76 10.24 21.856 11.328 10.528 1.44 21.472-1.696 29.792-9.376 11.328-10.592 14.464-26.624 9.056-40.192-1.504-3.904-3.744-7.648-6.72-11.008-2.112-2.496-34.080-42.656 2.112-116.224 0.928-1.984 1.92-3.872 2.976-5.92 9.44-17.824 2.624-39.808-15.2-49.312zM426.848 528.736c-4.512-1.888-9.44-2.88-14.624-2.88-21.12 0-38.304 17.152-38.304 38.304 0 8.48 2.816 16.288 7.456 22.656 6.944 9.504 18.144 15.648 30.848 15.648 21.184 0 38.336-17.088 38.336-38.304 0-15.936-9.76-29.696-23.712-35.424z" />
<glyph unicode="&#xe60d;" d="M154.336 386.72c0 29.44 7.552 64.16 20.288 101.792-34.816-47.68-167.456-234.816-167.456-319.136 0-97.088 78.688-175.776 175.808-175.776 63.776 0 119.648 33.984 150.464 84.864-106.944 61.248-179.104 176.48-179.104 308.256zM840.992 499.808c0 0-0.192-0.256-0.544-0.768 14.944-41.696 23.968-80.128 23.968-112.32 0-130.176-70.496-244.192-175.264-305.984 30.496-52.128 87.072-87.168 151.808-87.168 97.088 0 175.808 78.688 175.808 175.776 0.032 97.12-175.776 330.464-175.776 330.464zM803.232 386.72c0 162.272-293.824 552.352-293.824 552.352s-293.888-390.080-293.888-552.352c0-162.24 131.552-293.824 293.856-293.824s293.856 131.584 293.856 293.824zM406.176 220.416c-8.096-9.536-19.616-14.464-31.232-14.464-9.28 0-18.624 3.136-26.24 9.6-115.872 97.536-75.904 241.664-74.144 247.744 6.24 21.664 28.8 34.112 50.528 27.904 21.6-6.272 34.048-28.768 27.904-50.368-1.248-4.608-26.272-100.16 48.256-162.88 17.248-14.56 19.456-40.256 4.928-57.536z" />
<glyph unicode="&#xe60e;" d="M271.328 349.408c0 84.992 33.12 164.96 93.216 225.12 52.256 52.224 119.552 84.096 192.192 91.456-56.032 100.256-123.2 199.968-168.704 264.672-12 17.12-31.616 27.296-52.544 27.296s-40.512-10.176-52.544-27.264c-91.552-130.176-270.592-401.824-270.592-534.656 0-178.432 144.704-323.168 323.168-323.168 27.648 0 54.496 3.456 80.096 10.016-18.176 11.872-35.328 25.728-51.040 41.472-60.16 60.16-93.28 140.064-93.248 225.056zM222.016 213.12c-8.864-10.56-21.568-16-34.336-16-10.176 0-20.48 3.424-28.896 10.592-127.36 107.264-83.456 265.792-81.504 272.512 6.88 23.808 31.776 37.632 55.584 30.656 23.744-6.848 37.408-31.584 30.688-55.328-1.376-5.152-28.896-110.144 53.056-179.168 18.944-16.032 21.376-44.352 5.408-63.264zM574.24 241.376c-69.984 12.704-87.552 80.256-88.288 83.392-3.456 14.432-17.792 23.296-32.384 20-14.496-3.424-23.488-17.952-20.128-32.416 0.992-4.32 25.76-104.96 131.2-124.096 1.632-0.288 3.232-0.416 4.832-0.416 12.768 0 24.16 9.088 26.528 22.112 2.624 14.72-7.104 28.768-21.76 31.424zM989.024 64.352l-102.944 102.976c-15.776 15.776-41.376 15.776-57.184 0v0l-27.968 27.968c74.624 102.176 65.856 246.752-26.4 339.072-49.376 49.408-115.072 76.576-184.928 76.576-69.888 0-135.52-27.168-184.896-76.576-49.44-49.44-76.608-115.104-76.608-184.96-0.064-69.856 27.168-135.552 76.608-184.928 49.344-49.376 115.008-76.608 184.896-76.608 56.192 0 109.664 17.6 154.112 50.208l27.936-28c-15.776-15.776-15.776-41.408 0-57.184l102.944-102.912c16.832-16.832 44.128-16.832 60.992 0l53.408 53.44c8.064 8.032 12.608 19.040 12.608 30.432 0.032 11.456-4.48 22.4-12.576 30.496zM717.312 221.632c-34.112-34.080-79.488-52.864-127.712-52.864s-93.632 18.816-127.712 52.864c-34.080 34.080-52.896 79.488-52.896 127.744 0 30.528 7.552 59.936 21.76 86.048 8.192 15.168 18.624 29.184 31.136 41.632 1.792 1.824 3.648 3.552 5.536 5.344 33.376 30.688 76.512 47.584 122.176 47.584 48.224 0 93.568-18.848 127.712-52.928 6.592-6.592 12.384-13.696 17.728-20.96 51.84-70.656 46.080-170.624-17.728-234.464zM491.744 399.296c0-14.598-11.834-26.432-26.432-26.432s-26.432 11.834-26.432 26.432c0 14.598 11.834 26.432 26.432 26.432s26.432-11.834 26.432-26.432z" />
<glyph unicode="&#xe60f;" d="M450.784 911.552c-34.272 0-62.048-27.744-62.048-62.016v-514.976c0-34.272 27.776-62.048 62.048-62.048h255.392c-0.128-95.616-19.68-161.312-59.744-200.672-59.2-58.24-160.96-56.288-268.704-54.592-18.624 0.32-37.28 0.608-55.616 0.608-153.408 0-159.168 151.392-159.168 168.448v118.016c50.72 20.544 87.52 81.92 87.52 154.432 0 89.408-55.84 161.856-124.736 161.856s-124.768-72.448-124.768-161.856c0-71.52 35.808-132.16 85.472-153.536v-118.944c0-84.128 49.792-243.264 234.816-243.264 17.952 0 37.024-0.384 55.2-0.672 18.784-0.32 37.664-0.608 56.448-0.608 99.776 0 197.376 9.152 266.048 76.608 55.104 54.176 81.888 137.28 82.112 254.080h180.864c34.272 0 62.048 27.776 62.048 62.048v515.072c0 34.272-27.776 62.016-62.048 62.016h-511.136zM717.504 368.864c-123.584 0-223.744 100.128-223.744 223.712 0 123.52 100.16 223.744 223.744 223.744 123.552 0 223.712-100.224 223.712-223.744 0.032-123.584-100.128-223.712-223.712-223.712zM718.336 760.192c-92.896 0-168.416-75.52-168.416-168.416s75.52-168.48 168.416-168.48c92.864 0 168.416 75.552 168.416 168.48 0 92.896-75.552 168.416-168.416 168.416zM718.336 462.88c-71.072 0-128.928 57.792-128.928 128.896s57.856 128.864 128.928 128.864c71.072 0 128.928-57.792 128.928-128.864 0-71.104-57.856-128.896-128.928-128.896zM802.816 666.432c0-5.797-4.699-10.496-10.496-10.496s-10.496 4.699-10.496 10.496c0 5.797 4.699 10.496 10.496 10.496s10.496-4.699 10.496-10.496zM636.96 525.824c-4.128-4-4.128-10.656 0-14.816 4.064-4.128 10.688-4.128 14.816 0 4.096 4.16 4.096 10.816 0.032 14.816-4.16 4.128-10.784 4.128-14.848 0zM833.472 592.416c0-5.797-4.699-10.496-10.496-10.496s-10.496 4.699-10.496 10.496c0 5.797 4.699 10.496 10.496 10.496s10.496-4.699 10.496-10.496zM624.192 592.416c0-5.797-4.699-10.496-10.496-10.496s-10.496 4.699-10.496 10.496c0 5.797 4.699 10.496 10.496 10.496s10.496-4.699 10.496-10.496zM784.896 525.824c-4.128-4-4.096-10.656 0-14.816 4.096-4.128 10.752-4.128 14.848 0 4.064 4.16 4.064 10.816 0 14.816-4.096 4.128-10.752 4.128-14.848 0zM654.816 666.432c0-5.797-4.699-10.496-10.496-10.496s-10.496 4.699-10.496 10.496c0 5.797 4.699 10.496 10.496 10.496s10.496-4.699 10.496-10.496zM733.152 617.28v38.528c0 7.36-6.016 13.312-13.376 13.312-7.328 0-13.408-5.984-13.408-13.312v-38.4c-11.488-4.736-16.288-14.464-16.288-25.632 0-15.936 12.608-28.864 28.544-28.864s29.408 12.928 29.408 28.864c0 11.104-7.2 20.704-14.88 25.504zM728.832 697.088c0-5.797-4.699-10.496-10.496-10.496s-10.496 4.699-10.496 10.496c0 5.797 4.699 10.496 10.496 10.496s10.496-4.699 10.496-10.496zM728.864 487.808c0-5.814-4.714-10.528-10.528-10.528s-10.528 4.714-10.528 10.528c0 5.814 4.714 10.528 10.528 10.528s10.528-4.714 10.528-10.528z" />
<glyph unicode="&#xe610;" d="M827.36 82.72c25.408 0 46.016 20.608 46.016 46.016v573.12c0 25.408-20.608 46.016-46.016 46.016h-176.16c7.968 11.104 12.608 25.952 12.608 41.376 0 28.736-16.16 53.408-39.872 66.176v3.296h99.072c19.776 0 35.776 16.288 35.776 36.032 0 19.712-16 36-35.776 36h-99.648c-3.072 16.64-17.632 29.248-35.168 29.248-17.472 0-32.032-12.608-35.104-29.248h-415.072c-19.776 0-35.808-16.288-35.808-36 0-19.744 16.032-36.032 35.808-36.032h413.888v-3.296c-22.144-12.768-39.584-37.408-39.584-66.176 0-15.424 4.896-30.272 12.896-41.376h-187.84c-25.408 0-46.016-20.608-46.016-46.016v-573.12c0-25.408 20.608-46.016 46.016-46.016h189.568v-72h-20.32c-16.32 0-29.568-13.248-29.568-29.568v-12.928c0-16.32 13.216-29.568 29.568-29.568h156.992c16.32 0 29.568 13.248 29.568 29.568v12.928c0 16.32-13.248 29.568-29.568 29.568h-28.608v72h192.352zM551.936 806.24v-8.16c0-19.744 16.256-35.776 36.032-35.776s36 16.032 36 35.776v8.224c2.624-5.312 4.096-11.232 4.096-17.472 0-21.984-17.888-39.84-39.872-39.84-21.952 0-40.064 17.856-40.064 39.84-0.032 6.208 1.024 12.16 3.808 17.408zM363.488 629.824c0 25.408 20.608 46.016 46.016 46.016h345.856c25.408 0 46.016-20.576 46.016-46.016v-428.96c0-25.408-20.608-46.016-46.016-46.016h-345.888c-25.408 0-46.016 20.608-46.016 46.016v428.96zM396.736 239.648c0-25.408 20.608-46.016 46.016-46.016h276.576c25.408 0 46.016 20.608 46.016 46.016v200.576h-368.608v-200.576zM540.992 584.352h87.744c9.92 0 17.888 8.128 17.888 17.984 0 9.888-8 18.016-17.888 18.016h-87.744c-9.888 0-17.888-8.128-17.888-18.016 0-9.856 8.032-17.984 17.888-17.984zM540.992 534.464h87.744c9.92 0 17.888 8.128 17.888 17.984 0 9.92-8 18.048-17.888 18.048h-87.744c-9.888 0-17.888-8.128-17.888-18.048 0-9.824 8.032-17.984 17.888-17.984zM540.992 481.824h87.744c9.92 0 17.888 8.128 17.888 18.048 0 9.888-8 17.984-17.888 17.984h-87.744c-9.888 0-17.888-8.128-17.888-17.984 0-9.92 8.032-18.048 17.888-18.048z" />
<glyph unicode="&#xe611;" d="M943.392 797.408c-85.888 103.104-328.128 175.904-532.672 117.568-222.944-63.584-331.072-206.144-338.784-461.024l-68.896-140.672c-3.84-7.808-4.096-16.896-0.704-24.928 3.36-8.032 10.016-14.208 18.304-16.96l48-15.904c-6.016-236.096-3.776-295.2 231.328-295.2 240.864 0 209.888 177.024 500.736 211.552 214.976 25.6 290.176 448.672 142.688 625.568zM820.512 366.624c-50.656-35.584-87.488-36.832-117.12-37.792-31.744-1.152-56.8-1.952-99.968-47.296-4.288-4.544-10.112-6.816-15.904-6.816-5.44 0-10.912 1.984-15.136 6.016-8.8 8.416-9.152 22.304-0.8 31.104 55.52 58.304 93.568 59.648 130.272 60.896 26.656 0.928 51.936 1.824 89.952 27.52-30.56-4.128-64.416 4.224-97.728 28.672-104.672 76.736-256.768 3.936-256.768 133.696 0 129.696 105.088 234.816 234.784 234.816 129.76 0 234.944-105.12 234.944-234.816 0-0.192-0.032-0.352-0.032-0.48 3.168-20.608 13.888-124.992-86.496-195.52z" />
<glyph unicode="&#xe612;" d="M795.648 499.392l-120.672 28.896v428.064h-548.256v-703.2l-0.032-4.16c6.688-64.544 53.984-190.4 185.472-207.712l354.72-86.56c17.728-4.416 35.84-6.656 53.984-6.656 103.232 0 192.832 70.304 218.272 172.16l23.328 106.496c29.888 119.872-44.576 242.144-166.816 272.672zM868.224 351.136l-231.36-186.144v148.128l134.304 109.248 4.928-1.184c40.128-9.984 72.704-36.32 92.128-70.048zM596.864 54.592l-213.856 52.16 213.856 173.888v-226.048zM593.248 737.728l-386.688-156.192v187.84h386.688v-31.648zM593.248 694.336v-148.96l-386.688-71.68v64.384l386.688 156.256zM206.56 255.648v177.152l375.648 69.536-374.592-252.928c-0.48 2.688-1.056 4.832-1.056 6.24zM593.248 874.656v-65.376h-386.688v65.376h386.688zM219.328 208.704l377.92 255.2 124.672-29.76-387.968-315.424-5.12 1.248-4.672 0.864c-60.48 7.264-90.368 51.648-104.832 87.872zM883.872 245.024l-23.136-106.496c-19.008-76.064-96.832-125.088-174.688-105.696l-49.216 12v68.448l247.072 198.784c5.216-21.504 5.632-44.416-0.032-67.040z" />
<glyph unicode="&#xe613;" d="M321.28 598.112c32.096-31.072 65.952-63.36 99.936-96.256 44.416 6.528 88.608 14.272 133.376 19.52-50.016 54.272-97.856 110.528-143.712 162.336-46.144 52.48-73.44 116.48-104.608 163.936-15.232 24.096-31.456 44.032-46.976 60.576-15.072 16.928-31.936 28.16-48.096 35.328-32.256 14.144-62.144 11.36-62.144 11.36l-64.768-27.104c-36.064-15.168-54.4-55.168-42.208-92.352 1.952-5.92 4.256-12.192 6.944-18.848 23.392-55.040 89.856-90.272 113.184-106.592 46.016-33.28 108.768-63.392 159.072-111.904zM990.208 139.68c0 50.016-39.104 90.656-87.328 90.656-14.112 0-27.424-3.456-39.232-9.6-6.304 2.688-12.32 5.92-17.632 9.952-21.152 18.4-42.272 40-65.632 62.048-23.040 22.112-47.36 45.6-72.512 69.888-39.2 38.304-79.328 80-119.2 122.528-44.64-3.2-88.704-10.272-132.64-17.408 7.456-7.392 15.008-14.464 22.4-21.952 52.448-52.8 103.744-106.816 150.336-158.88 23.104-26.176 45.376-51.52 66.592-75.584 20.832-24.256 41.504-46.4 58.976-68.352 7.648-11.2 11.872-24.896 15.488-38.432-13.152-17.504-21.024-39.392-21.024-63.328 0-56.8 44.32-102.848 99.008-102.848 54.656 0 99.040 46.016 99.040 102.848 0 6.496-0.608 12.864-1.728 19.072 26.88 15.424 45.088 45.184 45.088 79.392zM663.84 604.864c3.968-5.056 9.856-7.712 15.84-7.712 4.288 0 8.608 1.312 12.256 4.224l176.256 136.832c8.736 6.784 10.304 19.36 3.52 28.064-6.72 8.736-19.328 10.4-28.064 3.52l-176.224-136.8c-8.768-6.784-10.368-19.392-3.584-28.128zM534.944 652.672c1.792-9.6 10.176-16.32 19.648-16.32 1.216 0 2.432 0.128 3.712 0.32 10.848 2.080 18.016 12.544 15.968 23.392l-36.64 195.232c-2.080 10.944-12.512 18.016-23.392 16.032-10.848-2.016-18.016-12.544-15.936-23.328l36.64-195.328zM677.12 503.968c-3.328-10.528 2.464-21.76 12.992-25.152l189.344-60.192c2.048-0.64 4.096-0.928 6.080-0.928 8.512 0 16.384 5.472 19.072 13.952 3.328 10.528-2.464 21.792-12.992 25.152l-189.344 60.224c-10.496 3.264-21.824-2.496-25.152-13.056zM617.824 640.032c1.248-0.192 2.432-0.32 3.616-0.32 9.536 0 17.952 6.784 19.68 16.512l23.36 128.448c1.984 10.912-5.216 21.312-16.096 23.264-10.816 1.696-21.344-5.216-23.264-16.128l-23.36-128.48c-2.016-10.848 5.216-21.28 16.064-23.296zM838.688 533.824c0.416-0.064 0.832-0.064 1.28-0.064 10.496 0 19.296 8.192 19.968 18.72 0.736 11.104-7.648 20.64-18.688 21.28l-130.336 8.384c-11.2 0.768-20.544-7.648-21.248-18.72-0.672-11.072 7.648-20.544 18.688-21.28l130.336-8.32zM359.52 373.28c-6.784 8.704-19.328 10.304-28.096 3.488l-176.224-136.832c-8.736-6.784-10.336-19.296-3.552-28.096 3.968-5.088 9.888-7.744 15.84-7.744 4.288 0 8.608 1.376 12.256 4.256l176.224 136.8c8.768 6.784 10.368 19.36 3.552 28.128zM488.448 325.472c-2.016 10.88-12.256 17.984-23.36 15.968-10.88-1.984-18.048-12.512-15.968-23.36l36.64-195.264c1.76-9.632 10.176-16.352 19.616-16.352 1.216 0 2.464 0.096 3.744 0.352 10.88 2.048 18.016 12.544 16 23.328l-36.672 195.328zM327.168 460.224c8.48 0 16.384 5.408 19.104 13.952 3.36 10.496-2.496 21.792-13.024 25.152l-189.344 60.224c-10.496 3.232-21.792-2.496-25.184-13.056-3.36-10.496 2.496-21.728 13.056-25.12l189.344-60.192c2.016-0.64 4.064-0.96 6.048-0.96zM405.536 338.080c-10.816 1.76-21.344-5.216-23.296-16.096l-23.392-128.48c-1.984-10.976 5.248-21.312 16.128-23.328 1.216-0.224 2.4-0.352 3.584-0.352 9.504 0 17.92 6.784 19.68 16.416l23.392 128.48c2.016 10.976-5.184 21.376-16.096 23.36zM184.704 444.352c-10.784 1.216-20.576-7.68-21.28-18.72-0.672-11.104 7.68-20.608 18.72-21.28l130.336-8.352c0.448-0.032 0.864-0.032 1.312-0.032 10.496 0 19.328 8.16 20 18.784 0.704 11.072-7.68 20.544-18.72 21.216l-130.368 8.384z" />
<glyph unicode="&#xe614;" d="M730.496 184.928c-26.048 0-47.2 21.152-47.2 47.2v20.032c0 14.24-11.552 25.792-25.792 25.792v261.664c0 18.080-14.688 32.736-32.768 32.736-18.016 0-32.704-14.656-32.704-32.736v-261.664h-22.368v212.448c0 18.080-14.688 32.736-32.736 32.736-18.080 0-32.704-14.624-32.704-32.736v-212.448h-32.704v261.664c0 18.080-14.624 32.736-32.704 32.736s-32.672-14.656-32.672-32.736v-261.664h-27.552v212.448c0 18.080-14.688 32.736-32.768 32.736-18.048 0-32.704-14.624-32.704-32.736v-212.448h-32.704v261.664c0 18.080-14.656 32.736-32.736 32.736-18.048 0-32.672-14.656-32.672-32.736v-261.664h-24.128v212.448c0 18.080-14.624 32.736-32.704 32.736s-32.704-14.624-32.704-32.736v-212.448h-32.736v261.664c0 18.080-14.656 32.736-32.704 32.736-18.080 0-32.704-14.656-32.704-32.736v-261.664c-12.384 0-22.4-10.016-22.4-22.4v-73.92c0-76.128 61.728-137.888 137.856-137.888h821.76c30.144 0 54.592 24.448 54.592 54.592v29.632c0 31.456-25.504 56.96-56.992 56.96h-231.648zM210.944 633.6c56.768-2.4 115.488-3.2 168.544-3.2 106.176 0 189.76 3.2 189.76 3.2s1.536 0.096 4.384 0.096c16.448 0 76-1.696 120.32-24.608 9.44-4.864 20.768-4.096 29.44 2.048 8.672 6.080 13.184 16.544 11.776 27.040-9.024 66.752-39.2 161.536-135.232 201.856-36.64 15.36-76.416 20.768-117.28 20.768-99.456 0.096-205.728-32.224-290.72-32.224-36.096 0-68.384 5.856-94.688 22.432 0 0-19.488 14.496-34.944 40.736-5.024 8.512-14.656 13.152-24.416 11.808s-17.76-8.416-20.288-17.92c-8.992-33.856-13.344-78.816 1.92-128.48 0 0 32.704-116.8 191.424-123.552zM44.992 858.784c15.744-21.216 31.424-33.088 32.64-33.984 0.704-0.544 1.376-0.96 2.112-1.504 29.312-18.4 65.952-27.328 112.128-27.328 43.456 0 90.016 7.52 139.392 15.52 50.272 8.224 102.272 16.672 151.328 16.64 41.056 0 75.328-5.984 104.608-18.24 77.504-32.544 104.832-109.76 114.144-168.096-0.48 0.224-0.928 0.416-1.44 0.608-103.744 198.24-383.456 61.888-525.728 85.184-93.184 15.296-122.080 76.8-130.656 121.216 0.416 3.456 0.928 6.752 1.472 9.984z" />
<glyph unicode="&#xe615;" d="M702.88 708.768c-49.216 0-94.176-27.968-115.872-72.192l-22.368-45.6v51.872c0 34.976 10.752 68.736 30.88 97.344 11.744 16.736 18.688 37.056 18.688 59.008 0 57.024-46.112 103.264-103.2 103.264-57.056 0-103.712-46.24-103.712-103.264 0-21.28 6.816-41.088 17.888-57.536 18.784-27.904 28.896-60.8 28.896-94.432v-43.616l-15.168 31.712c-21.44 44.864-66.752 73.44-116.512 73.44h-283.776c-12.608 0-24.256-6.72-30.56-17.632-6.272-10.912-6.272-24.352 0.032-35.264 17.696-30.688 42.848-56.384 73.12-74.752l206.784-125.44c-5.632 9.728-10.176 19.776-13.312 29.6-7.52 24.128-8.672 44.224-7.968 56.736 1.184 58.336 39.040 84.384 76.672 80.736 23.040-2.272 42.336-15.648 52.96-34.336l21.952-39.040c0.256 0.16 38.816-30.72 94.944-46.016 61.312 19.488 95.2 46.176 95.36 46.016l21.76 38.688c18.496 32.992 60.352 44.736 93.44 26.176 20.128-11.328 36.8-37.408 36.512-72.256-0.544-20.16-0.512-32.544-7.968-56.672-3.104-9.536-7.488-19.296-12.96-28.864l205.728 124.672c30.272 18.336 55.392 44.032 73.152 74.752 6.272 10.912 6.272 24.352 0 35.264-6.304 10.912-17.984 17.632-30.56 17.632h-284.832zM513.536 270.624c4.768 1.376 35.232 9.728 45.152 12.352-9.152 4.448-39.968 18.368-45.152 20.64-5.312-2.272-36.032-16.192-45.216-20.64 9.952-2.624 40.384-10.976 45.216-12.352zM544.448 108.352c-10.112 0.64-51.84 0.64-61.888 0-5.216-0.32-10.112-0.064-16-0.8-4.096-0.544-7.168-1.152-12.544-1.696v-63.296c0-30.432 24.832-55.072 55.328-55.072 30.432 0 55.264 24.672 55.264 55.072v64.256c0 0.256-3.168 0.512-4.896 0.736-5.952 0.704-10.048 0.448-15.264 0.8zM343.808 139.424c-4.032-8.352-6.816-16.96-7.808-25.408-3.68-24.416 3.136-43.36 9.792-56.32 14.4-25.888 28.032-34.432 28.032-34.432s-0.992 3.872-1.76 11.008c-8.8 82.336 48.128 90.464 51.168 91.328-46.208 7.68-68.992 15.68-76.832 18.848-0.896-1.632-1.792-3.296-2.592-5.024zM626.656 270.624v0.384zM719.424 343.072c-20.448 33.152-64.32 59.904-73.792 65.28 14.56 9.504 28.096 20.096 39.872 32.16 43.616 44.608 44.288 92.288 43.968 102.56-0.672 10.208-1.024 15.68-1.024 15.68-1.888 24.8-23.616 43.328-48.416 41.44-24.8-1.952-43.36-23.648-41.376-48.448-0.48 0.16-0.096-8.896-5.792-18.592-3.168-4.8-7.648-11.136-17.12-18.592-9.408-7.36-22.88-16-40.128-24.384-17.696-8.672-38.656-17.12-62.112-26.176-18.72 7.2-35.744 14.016-50.816 20.832-3.968 1.76-7.712 3.552-11.36 5.344-17.312 8.384-30.784 17.056-40.128 24.384-9.472 7.456-14.016 13.792-17.184 18.592-5.696 9.696-5.312 18.72-5.728 18.592 1.984 24.8-16.608 46.464-41.44 48.448-24.736 1.888-46.432-16.64-48.416-41.44 0 0-0.352-5.472-0.96-15.68-0.384-10.272 0.768-26.336 7.072-45.728 6.496-19.264 26.208-55.2 76.768-88.992 59.2-29.856 130.944-64.256 132.16-63.808 10.112-4.224 125.472-50.208 115.552-72.064-1.312-4.32-9.056-7.072-19.808-10.656-11.104-4.096-24.16-7.456-38.016-10.752-7.744-1.856-15.744-3.648-23.808-5.6 66.112-21.632 116-48.288 136.416-62.048 0.864-0.544 1.6-1.088 2.336-1.632 4.608 2.944 9.216 6.304 13.888 10.176 24.416 21.12 62.624 81.184 19.392 151.104zM661.088 170.208c-51.136 36.192-232.896 87.84-243.2 91.584-10.688 3.584-18.112 8.512-19.52 10.656-1.984 5.76 2.336 9.472 3.328 10.4 10.592 11.232 55.328 36.96 76.256 46.4-51.584 22.816-106.912 46.592-128.096 58.848-14.496-10.976-31.52-24-42.304-45.088-18.688-36.672-18.688-75.904-18.688-75.904 0-25.728 17.248-59.296 38.112-75.2 5.472-4.544 10.848-8.352 16.16-11.68 14.944-9.248 29.056-14.144 41.6-17.952 34.656-10.112 63.84-13.728 91.552-16.768 26.272-3.2 51.616-6.272 75.776-9.216 8.032-0.928 74.592-8.16 93.28-36.672 6.848-10.496 10.304-23.968 11.040-35.968 0.96-12.16-0.352-22.464-1.408-29.44-0.864-7.136-1.856-11.008-1.856-11.008s15.584 7.584 28.096 34.432c34.848 75.232-19.68 112.288-20.128 112.576z" />
<glyph unicode="&#xe616;" d="M519.040 957.952c-280.8 0-509.216-228.448-509.216-509.216 0-280.8 228.416-509.216 509.216-509.216 280.832 0 509.248 228.448 509.248 509.216s-228.416 509.216-509.248 509.216zM519.040 20.544c-236.128 0-428.16 192.064-428.16 428.192 0 236.064 192.032 428.16 428.16 428.16s428.192-192.096 428.192-428.16c0-236.128-192.064-428.192-428.192-428.192zM816.416 385.536c0-68.466-55.502-123.968-123.968-123.968s-123.968 55.502-123.968 123.968c0 68.466 55.502 123.968 123.968 123.968s123.968-55.502 123.968-123.968zM508.256 706.176c0-50.846-41.218-92.064-92.064-92.064s-92.064 41.218-92.064 92.064c0 50.846 41.218 92.064 92.064 92.064s92.064-41.218 92.064-92.064zM428.576 398.176c0-61.485-49.843-111.328-111.328-111.328s-111.328 49.843-111.328 111.328c0 61.485 49.843 111.328 111.328 111.328s111.328-49.843 111.328-111.328zM559.584 179.296c0-25.909-21.003-46.912-46.912-46.912s-46.912 21.003-46.912 46.912c0 25.909 21.003 46.912 46.912 46.912s46.912-21.003 46.912-46.912zM762.592 641.216c0-27.977-22.679-50.656-50.656-50.656s-50.656 22.679-50.656 50.656c0 27.977 22.679 50.656 50.656 50.656s50.656-22.679 50.656-50.656zM570.432 513.632c0-23.7-19.212-42.912-42.912-42.912s-42.912 19.212-42.912 42.912c0 23.7 19.212 42.912 42.912 42.912s42.912-19.212 42.912-42.912z" />
<glyph unicode="&#xe617;" d="M676.352 448.736v401.472h-78.592l18.304 102.432h-236.224l13.76-102.432h-82.752v-401.024c-82.592-65.92-220.224-221.92-220.224-344.032v-13.024c0-158.432 135.808-158.432 234.912-158.432h372.8c60.512 0 113.952 1.536 156.096 20.352 52.288 23.328 78.784 69.792 78.784 138.080v13.024c0.032 105.568-94.752 233.088-256.864 343.584zM859.84 92.096c0-48.672-16.928-62.944-35.264-71.2-28.928-12.864-76.128-13.952-126.208-13.952h-372.704c-132.96 0-161.6 15.104-161.6 85.152v13.024c0 89.376 123.36 237.44 204.832 296.16l15.392 11.008v364.48h19.2l4.96-36.704h169.664l6.592 36.704h18.24v-367.232l16.672-10.88c145.792-96.384 240.224-211.584 240.224-293.504v-13.056zM576.064 373.056h-170.944c0 0-232.096-166.976-177.152-283.008 0 0 20.608-24.576 84.352-23.552 50.112 0.8 446.944-0.928 446.944-0.928s80.16-0.16 48.896 63.776c-17.472 35.648-92.384 188.672-232.096 243.712zM555.232 482.208c0-15.817-12.823-28.64-28.64-28.64s-28.64 12.823-28.64 28.64c0 15.817 12.823 28.64 28.64 28.64s28.64-12.823 28.64-28.64zM468.448 604.736c0-12.654-10.258-22.912-22.912-22.912s-22.912 10.258-22.912 22.912c0 12.654 10.258 22.912 22.912 22.912s22.912-10.258 22.912-22.912zM525.696 687.2c0-11.381-9.227-20.608-20.608-20.608s-20.608 9.227-20.608 20.608c0 11.381 9.227 20.608 20.608 20.608s20.608-9.227 20.608-20.608z" />
<glyph unicode="&#xe618;" d="M989.024 693.248l-293.376 257.472c-22.080 19.424-59.584 12.8-83.744-14.72-24.192-27.52-25.856-65.6-3.808-84.992l24.384-21.376-298.24-339.808-46.176-249.888-131.104-149.376-32.224 28.288c-7.488 6.56-17.28 9.888-27.2 9.248s-19.2-5.216-25.76-12.704l-8.832-10.080c-13.664-15.584-12.096-39.296 3.456-52.96l117.92-103.552c15.584-13.664 39.296-12.128 52.96 3.424l8.832 10.080c13.664 15.584 12.128 39.296-3.424 52.96l-32.16 28.256 131.072 149.344 239.488 80.608 298.080 339.616 22.336-19.584c22.112-19.424 59.616-12.8 83.808 14.72 24.16 27.584 25.824 65.632 3.712 85.024zM540.128 334.912l-97.632-32.832c-15.68-5.28-32.96-1.856-45.44 8.96s-18.304 27.456-15.296 43.712l18.976 102.816 203.488 231.84 139.52-122.496-203.616-232zM767.264 593.728l-139.488 122.464 48.096 54.816 139.488-122.496-48.096-54.784z" />
<glyph unicode="&#xe619;" d="M405.28 367.616c-1.408-4.928-0.096-10.272 3.456-14.016 3.552-3.712 8.832-5.312 13.856-4.128l49.056 11.456-53.056 53.216-13.312-46.528zM538.88 555.328l80.416-80.64 51.712 48.64-80.416 80.704zM990.72 132.16c-16.992 17.024-44.576 17.088-61.664 0.096l-25.824-25.728-139.744 140.352-34.208 136.288-59.232-55.712 0.64-2.656c2.432-9.664-0.416-19.872-7.52-26.848s-17.344-9.696-26.944-7.136l-3.968 1.056-60.96-57.888 142.016-37.44 139.616-140.16-25.824-25.664c-8.192-8.16-12.832-19.232-12.832-30.848-0.032-11.552 4.544-22.656 12.704-30.88l0.64-0.64c16.992-17.056 44.576-17.088 61.664-0.096l101.952 101.536c8.192 8.16 12.8 19.264 12.832 30.816 0 11.584-4.544 22.688-12.736 30.88l-0.608 0.672zM131.584 559.744l20.928 20.896 128.928-129.44 22.24 77.856 0.192 0.224-13.824 13.952 130.976 130.496 17.568-17.728 51.744 48.736-106.176 106.56 22.88 22.912c20.768 20.64 16.672 58.272-9.088 84.16-25.76 25.92-63.456 30.080-84.16 9.376l-275.52-274.368c-20.736-20.64-16.704-58.368 9.056-84.224 25.792-25.824 63.456-30.080 84.256-9.408zM344.704 750.336l51.232-51.424-130.976-130.432-51.296 51.424 131.040 130.432zM887.136 580.48l20.256-21.568c20.096-21.28 57.888-18.336 84.512 6.656 26.592 24.96 31.808 62.528 11.744 83.904l-266.432 283.2c-20.064 21.28-57.92 18.336-84.48-6.72s-31.84-62.528-11.776-83.84l22.112-23.52-327.968-308.64-69.472-243.392-144.16-135.68-24.352 25.888c-16.864 17.92-45.024 18.784-62.944 1.952l-7.072-6.656c-13.632-12.832-14.272-34.272-1.44-47.904l105.248-111.872c7.936-8.448 18.88-13.344 30.432-13.728 11.552-0.352 22.784 3.904 31.2 11.84 8.608 8.096 13.632 19.264 13.984 31.072s-4 23.296-12.096 31.84l-24.32 25.888 144.096 135.616 245.184 57.184 327.744 308.48zM524.608 336.8l-113.472-26.464c-13.216-3.072-27.040 1.056-36.384 10.88s-12.8 23.84-9.088 36.864l32.416 113.504 223.744 210.56 126.688-134.592-223.904-210.752zM774.336 571.872l-126.688 134.624 52.928 49.76 126.688-134.656-52.928-49.728z" />
<glyph unicode="&#xe61a;" d="M833.664 744.608c0.128 9.248-1.216 17.984-3.872 26.112-13.152-30.784-30.496-56.192-50.016-74.24-24.064-45.504-72.32-98.048-114.24-138.304-14.816 10.656-32.672 16.448-51.136 16.48-23.232 0-45.504-9.248-61.92-25.664l-473.504-473.408c-10.656-10.624-16.64-25.056-16.64-40.064 0-15.072 5.984-29.472 16.64-40.096l34.112-34.112c22.56-22.624 59.2-22.624 81.76 0l481.44 481.44c23.232 23.232 28.032 57.92 14.496 85.92 59.264 56.256 141.792 146.88 142.88 215.936zM702.656 706.912c3.328-1.024 6.752-1.536 10.24-1.536 32.608 0 71.136 43.616 90.208 104.8 21.152 67.744 10.496 131.392-23.84 142.144-3.328 1.056-6.752 1.568-10.24 1.568-32.576-0.032-71.104-43.68-90.176-104.864-21.184-67.744-10.496-131.392 23.808-142.112z" />
<glyph unicode="&#xe61b;" d="M938.048 756.864c-2.304 50.272-23.456 97.76-59.424 133.76l-4.864 4.896c-37.888 37.888-89.92 59.616-142.72 59.616-48.384 0-92.992-17.984-125.728-50.688l-74.752-74.784-12.576 12.608c-16.96 16.928-44.416 16.928-61.344 0l-7.808-7.776c-16.928-16.96-16.928-44.416 0-61.344l12.576-12.576-232.256-232.288c-36.992-36.992-52.288-83.552-44.128-134.688 4.128-25.76-4.448-52.16-23.2-70.912-44.608-44.608-48.192-104-8.512-146.912-22.016-30.784-76.576-110.784-76.576-148.576 0-47.264 38.336-85.6 85.632-85.6 47.264 0 85.6 38.336 85.6 85.6 0 29.664-33.632 85.408-58.752 122.848 11.456-4.864 23.744-7.36 36.416-7.36 28.416 0 56.832 12.832 80.096 36.064l2.688 2.72c16.992 16.992 41.792 25.024 65.92 20.864 9.696-1.696 19.2-2.496 28.448-2.496 40.736 0 78.272 16 108.544 46.24l232.256 232.256 12.608-12.64c16.896-16.928 44.352-16.928 61.376 0l7.776 7.84c16.928 16.96 16.928 44.384 0 61.344l-12.64 12.576 74.784 74.752c35.008 34.944 52.96 82.784 50.56 134.656zM592.736 828.064c10.752 0 19.456-8.672 19.456-19.456 0-10.752-8.704-19.456-19.456-19.456-10.72 0-19.424 8.704-19.424 19.456 0 10.784 8.704 19.456 19.424 19.456zM459.648 297.312c-16.736-16.672-35.296-25.312-56.768-25.312 0 0 0 0 0 0-5.216 0-10.528 0.96-16 1.92-48.16 8.352-96.192-7.072-130.144-40.96l-2.688-2.624c-15.808-15.776-30.72-21.28-46.752-5.216-17.12 17.12-3.36 36 6.656 46.080 34.944 34.976 51.168 85.024 43.36 133.888-4.416 27.744 3.328 51.104 23.616 71.392l224.48 224.48 179.584-178.112-225.344-225.536zM815.616 868.736c-4.768-8.928-15.904-12.256-24.8-7.392-73.632 39.712-131.168-16.768-133.536-19.2-3.616-3.616-8.352-5.376-13.056-5.376-4.672 0-9.312 1.76-12.832 5.248-7.168 7.072-7.328 18.624-0.256 25.824 26.912 27.424 98.432 68.128 177.056 25.728 8.928-4.832 12.224-15.936 7.424-24.832zM367.776 522.88l-45.408-45.376c-36.192-36.192-36.192-94.912 0-131.072l7.232-7.232c36.192-36.192 94.88-36.192 131.072 0l130.464 130.4-223.36 53.28z" />
<glyph unicode="&#xe61c;" d="M226.496 954.784c-47.264 0-85.568-38.272-85.568-85.568v-840.48c0-47.264 38.304-85.6 85.568-85.6h642.784c47.264 0 85.568 38.304 85.568 85.6v840.48c0 47.264-38.304 85.568-85.568 85.568h-642.784zM392.736 70.080c-59.328 0-107.456 47.904-107.456 107.072 0 59.072 48.128 107.040 107.456 107.040 59.392 0 107.52-47.968 107.52-107.040 0.032-59.136-48.096-107.072-107.52-107.072zM392.736 353.472c-59.328 0-107.456 47.936-107.456 107.008 0 59.104 48.128 107.072 107.456 107.072 59.392 0 107.52-47.968 107.52-107.072 0.032-59.072-48.096-107.008-107.52-107.008zM392.736 636.768c-59.328 0-107.456 47.936-107.456 107.072 0 59.072 48.128 106.976 107.456 106.976 59.392 0 107.52-47.904 107.52-106.976 0.032-59.104-48.096-107.072-107.52-107.072zM717.952 70.080c-59.36 0-107.456 47.904-107.456 107.072 0 59.072 48.128 107.040 107.456 107.040 59.392 0 107.488-47.968 107.488-107.040 0-59.136-48.096-107.072-107.488-107.072zM717.952 353.472c-59.36 0-107.456 47.936-107.456 107.008 0 59.104 48.128 107.072 107.456 107.072 59.392 0 107.488-47.968 107.488-107.072 0-59.072-48.096-107.008-107.488-107.008zM717.952 636.768c-59.36 0-107.456 47.936-107.456 107.072 0 59.072 48.128 106.976 107.456 106.976 59.392 0 107.488-47.904 107.488-106.976 0-59.104-48.096-107.072-107.488-107.072zM446.592 743.456c0-0.224 0-22.336-15.872-37.696-7.392-7.104-20-15.584-37.984-15.584-11.52 0-20.864-9.376-20.864-20.928s9.344-20.896 20.864-20.896c31.968 0 54.080 14.848 67.040 27.392 29.344 28.384 28.672 67.072 28.576 68.64-0.288 11.552-11.328 21.184-21.248 20.256-11.456-0.224-20.608-9.728-20.512-21.184zM367.648 687.872c0-12.636-10.244-22.88-22.88-22.88s-22.88 10.244-22.88 22.88c0 12.636 10.244 22.88 22.88 22.88s22.88-10.244 22.88-22.88zM771.776 743.456c0-0.224 0-22.336-15.84-37.696-7.424-7.104-20-15.584-37.984-15.584-11.52 0-20.928-9.376-20.928-20.928s9.408-20.896 20.928-20.896c31.968 0 54.080 14.848 67.040 27.392 29.344 28.384 28.672 67.072 28.576 68.64-0.32 11.552-11.36 21.184-21.28 20.256-11.456-0.224-20.608-9.728-20.512-21.184zM692.864 687.872c0-12.636-10.244-22.88-22.88-22.88s-22.88 10.244-22.88 22.88c0 12.636 10.244 22.88 22.88 22.88s22.88-10.244 22.88-22.88zM446.592 460.096c0-0.224 0-22.368-15.872-37.696-7.392-7.136-20-15.552-37.984-15.552-11.52 0-20.864-9.408-20.864-20.992 0-11.52 9.344-20.896 20.864-20.896 31.968 0 54.080 14.912 67.040 27.392 29.344 28.416 28.672 67.072 28.576 68.672-0.288 11.456-11.328 20.256-21.248 20.256-11.456-0.224-20.608-9.696-20.512-21.184zM367.616 404.544c0-12.619-10.229-22.848-22.848-22.848s-22.848 10.229-22.848 22.848c0 12.619 10.229 22.848 22.848 22.848s22.848-10.229 22.848-22.848zM771.776 460.096c0-0.224 0-22.368-15.84-37.696-7.424-7.136-20-15.552-37.984-15.552-11.52 0-20.928-9.408-20.928-20.992 0-11.52 9.408-20.896 20.928-20.896 31.968 0 54.080 14.912 67.040 27.392 29.344 28.416 28.672 67.072 28.576 68.672-0.32 11.456-11.36 20.256-21.28 20.256-11.456-0.224-20.608-9.696-20.512-21.184zM692.832 404.544c0-12.619-10.229-22.848-22.848-22.848s-22.848 10.229-22.848 22.848c0 12.619 10.229 22.848 22.848 22.848s22.848-10.229 22.848-22.848zM446.592 176.736c0-0.256 0-22.4-15.872-37.728-7.392-7.104-20-15.616-37.984-15.616-11.52 0-20.864-9.312-20.864-20.896 0-11.488 9.344-20.832 20.864-20.832 31.968 0 54.080 14.816 67.040 27.328 29.344 28.352 28.672 67.040 28.576 68.672-0.288 11.552-11.328 20.896-21.248 20.256-11.456-0.224-20.608-9.696-20.512-21.184zM367.616 121.184c0-12.619-10.229-22.848-22.848-22.848s-22.848 10.229-22.848 22.848c0 12.619 10.229 22.848 22.848 22.848s22.848-10.229 22.848-22.848zM771.776 176.736c0-0.256 0-22.4-15.84-37.728-7.424-7.104-20-15.616-37.984-15.616-11.52 0-20.928-9.312-20.928-20.896 0-11.488 9.408-20.832 20.928-20.832 31.968 0 54.080 14.816 67.040 27.328 29.344 28.352 28.672 67.040 28.576 68.672-0.32 11.552-11.36 20.896-21.28 20.256-11.456-0.224-20.608-9.696-20.512-21.184zM692.832 121.184c0-12.619-10.229-22.848-22.848-22.848s-22.848 10.229-22.848 22.848c0 12.619 10.229 22.848 22.848 22.848s22.848-10.229 22.848-22.848z" />
<glyph unicode="&#xe61d;" d="M1018.624 629.856c-10.912 56.512-43.2 105.44-90.88 137.632-35.84 24.256-77.504 37.056-120.608 37.056-71.776 0-138.56-35.456-178.72-94.752l-221.344-327.424c-32.256-47.712-44-105.088-33.056-161.632 10.912-56.512 43.2-105.408 90.88-137.6 35.808-24.288 77.504-37.056 120.608-37.056 71.744 0 138.528 35.456 178.656 94.784l221.344 327.328c32.288 47.776 44.032 105.12 33.12 161.664zM836.896 674.176c-5.536 1.248-52.032 10.176-91.072-47.456l-58.688-86.816c-6.944-10.24-18.272-15.808-29.792-15.808-6.944 0-13.952 1.984-20.096 6.208-16.448 11.104-20.768 33.44-9.632 49.888l58.688 86.784c69.632 102.976 165.376 77.632 169.408 76.48 19.136-5.344 30.304-25.12 24.96-44.224-5.312-18.912-24.864-29.984-43.776-25.056zM704.672 181.152c-26.752-39.584-71.328-63.232-119.168-63.232-28.672 0-56.512 8.544-80.384 24.704-31.776 21.472-53.312 54.080-60.608 91.776s0.576 75.936 22.048 107.712l88.352 130.688c13.12 19.392 39.52 24.512 58.944 11.392l167.744-113.408c9.344-6.272 15.776-16.064 17.888-27.104 2.144-11.072-0.192-22.496-6.496-31.84l-88.32-130.688zM445.216 582.88c1.792 122.080-95.68 222.528-217.792 224.384-122.080 1.792-222.56-95.68-224.384-217.824-1.824-122.080 95.68-222.528 217.792-224.32 122.112-1.824 222.56 95.616 224.384 217.76zM347.936 546.88c-0.288 0-0.64 0-0.96 0l-247.552 6.528c-19.808 0.544-35.488 17.056-34.944 36.928 0.544 19.776 16.224 35.232 36.832 34.944l247.552-6.464c19.808-0.512 35.456-17.024 34.944-36.864-0.544-19.584-16.48-35.072-35.872-35.072z" />
<glyph unicode="&#xe61e;" d="M733.696 592.256c0 0-44.032 45.696-212.384 45.696-168.288 0-212.384-45.696-212.384-45.696v-335.744c-22.624-4.672-39.552-9.728-51.936-14.208-18.176-6.656-30.272-23.936-30.272-43.328v-189.152c0-21.664 15.104-40.448 36.256-44.992 49.184-10.656 144.064-27.264 258.368-27.264s209.184 16.608 258.368 27.264c21.216 4.576 36.256 23.328 36.256 44.992v188.32c0 19.264-12.032 36.544-30.112 43.232-12.704 4.672-29.856 9.984-52.096 14.976v335.904zM390.24 567.136c18.208 0 32.992-14.816 32.992-33.024 0-18.24-14.784-32.96-32.992-32.96s-32.992 14.72-32.992 32.96c0.032 18.208 14.816 33.024 32.992 33.024zM354.592 449.856c0 20.896 15.68 37.856 36.544 37.856s36.544-16.928 36.544-37.856v-195.456c0-20.896-15.648-37.76-36.544-37.76-20.864 0-36.544 16.832-36.544 37.76v195.456zM521.312 689.696c20.864 0 38.848 16.928 38.848 37.856v188.96c0 20.896-17.984 37.856-38.848 37.856s-38.816-16.928-38.816-37.856v-188.96c0-20.928 17.952-37.856 38.816-37.856zM363.040 714.112c3.68-3.648 8.512-5.504 13.376-5.504 4.832 0 9.664 1.856 13.344 5.504 7.36 7.424 7.36 19.424 0 26.688l-133.664 133.696c-7.36 7.424-19.328 7.424-26.72 0-7.392-7.36-7.392-19.36 0-26.688l133.664-133.696zM666.272 708.608c4.832 0 9.632 1.856 13.344 5.504l133.632 133.696c7.392 7.328 7.392 19.328 0 26.688-7.36 7.424-19.328 7.424-26.72 0l-133.632-133.696c-7.36-7.264-7.36-19.264 0-26.688 3.712-3.648 8.512-5.504 13.376-5.504zM1023.712 666.080c-3.36 20.576-22.528 34.624-43.392 31.104l-186.496-30.592c-20.608-3.424-34.56-22.88-31.2-43.456 3.040-18.528 19.072-31.616 37.28-31.616 2.048 0 4.032 0.16 6.144 0.512l186.528 30.592c20.576 3.328 34.56 22.816 31.136 43.456zM242.784 591.52c18.208 0 34.208 13.088 37.28 31.616 3.36 20.576-10.592 40.032-31.2 43.456l-186.528 30.592c-20.928 3.712-40.064-10.528-43.392-31.104-3.424-20.672 10.56-40.128 31.136-43.456l186.496-30.592c2.112-0.352 4.16-0.512 6.208-0.512z" />
<glyph unicode="&#xe61f;" d="M475.296 249.856c-28.96 42.176-44.576 92-44.576 144.288 0 68.288 24.288 134.912 74.88 180.8 49.024 44.512 123.392 71.008 159.776 73.952-66.592 45.28-147.84 81.824-236.672 81.824-228.896 0-407.264-242.304-414.72-252.576-9.984-13.792-9.984-32.448 0-46.208 7.456-10.272 185.824-252.64 414.72-252.64 34.176 0 67.232 5.44 98.656 14.656-7.52 6.048-14.816 12.448-21.76 19.424-11.36 11.296-21.408 23.52-30.304 36.48zM409.024 538.176c-6.88-0.864-30.72-9.92-46.080-31.584-14.208-20.064-17.536-46.304-9.856-77.984 5.088-21.088-7.808-42.336-28.928-47.488-3.136-0.768-6.24-1.12-9.28-1.12-17.792 0-33.856 12.096-38.208 30.080-17.568 72.128 4.832 120.512 26.752 148.288 29.984 38.016 76.448 58.528 105.056 58.528h0.064c21.76 0 39.328-17.696 39.264-39.424-0.032-21.472-17.344-39.040-38.784-39.296zM96.16 455.008c35.136 41.696 117.056 129.056 218.368 172.064-58.592-36.672-97.568-101.792-97.568-176 0-61.536 26.816-116.8 69.376-154.784-88.224 45.792-158.4 120.928-190.176 158.72zM674.048 307.328c-56.192 10.24-70.304 64.512-70.88 67.040-2.816 11.584-14.336 18.688-26.016 16.032-11.648-2.72-18.88-14.368-16.192-25.984 0.8-3.424 20.672-84.32 105.376-99.68 1.312-0.224 2.592-0.352 3.936-0.352 10.24 0 19.36 7.328 21.28 17.824 2.112 11.68-5.696 23.008-17.504 25.12zM1007.264 165.152l-82.72 82.72c-12.704 12.672-33.216 12.672-45.952 0v-0.064l-22.464 22.496c60 82.112 52.896 198.24-21.216 272.384-39.648 39.712-92.448 61.568-148.544 61.568-56.128 0-108.864-21.856-148.576-61.568-39.68-39.712-61.504-92.448-61.504-148.576-0.064-56.128 21.824-108.896 61.504-148.576s92.448-61.6 148.576-61.6c45.12 0 88.096 14.176 123.808 40.384l22.432-22.464h-0.032c-12.672-12.672-12.608-33.248 0.032-45.952l82.688-82.72c13.568-13.536 35.456-13.536 49.024 0l42.912 42.944c13.568 13.568 13.568 35.488 0.032 49.024zM788.992 291.488c-27.392-27.424-63.808-42.528-102.56-42.528s-75.232 15.136-102.592 42.528c-27.392 27.36-42.464 63.84-42.464 102.592 0 24.544 6.048 48.192 17.472 69.12 6.592 12.192 14.976 23.424 24.992 33.472 1.472 1.472 2.944 2.88 4.448 4.288 26.848 24.672 61.472 38.208 98.144 38.208 38.752 0 75.168-15.104 102.56-42.496 5.504-5.504 10.496-11.392 14.944-17.504 41.056-56.672 36.128-136.64-14.944-187.68zM607.84 434.24c0-11.735-9.513-21.248-21.248-21.248s-21.248 9.513-21.248 21.248c0 11.735 9.513 21.248 21.248 21.248s21.248-9.513 21.248-21.248z" />
<glyph unicode="&#xe620;" d="M724.16 779.712c46.688 0 84.544 37.888 84.544 84.64 0 46.72-37.856 84.576-84.544 84.576-46.784 0-84.64-37.856-84.64-84.576 0-46.752 37.856-84.64 84.64-84.64zM906.432 667.616c0 0 4.8 94.496-94.912 94.496h-172.864c-96.192 0-95.488-87.264-95.552-94.496l0.032-268.16c1.568-14.464 15.84-30.944 33.568-30.944 17.632 0 30.592 15.968 32.16 30.464l30.048-427.040c2.208-21.728 17.536-29.824 36.448-29.824 18.848 0 34.176 8.096 36.416 29.824h26.624c2.304-21.728 17.632-29.824 36.384-29.824 18.912 0 34.24 8.096 36.512 29.824l30.912 427.328c0-14.496 14.048-30.816 31.744-30.816 17.664 0 31.776 16.544 33.344 31.008l-0.864 268.16zM412.992 865.76c0-46.569-37.064-84.32-82.784-84.32s-82.784 37.751-82.784 84.32c0 46.569 37.064 84.32 82.784 84.32s82.784-37.751 82.784-84.32zM512.352 549.376c7.392 31.392-35.328 160.64-35.328 160.64-4.768 12.192-27.456 49.536-91.264 49.92l-124.736-0.384c-61.792 3.456-84.704-31.968-90.368-50.688 0 0-41.44-130.176-34.592-159.488 4.544-19.264 38.976-42.912 75.2-60.16l-76-231.808 111.2 0.32 0.32-281.248c2.144-21.664 17.216-29.6 35.712-29.6 18.4 0 33.536 7.296 35.616 28.928h11.456c2.112-21.664 17.152-29.312 35.584-29.312 18.528 0 33.536 8.128 35.712 29.76l0.288 281.472 118.624-0.16-72.384 236.672c32.224 16.64 60.832 37.728 64.96 55.136z" />
<glyph unicode="&#xe621;" d="M871.648 613.152c0 191.296-155.744 347.072-347.072 347.072-191.392 0-347.168-155.744-347.168-347.072 0-166.4 117.6-305.824 274.112-339.328v-80.768h-77.216c-37.184 0-67.328-30.4-67.328-67.52 0-37.184 30.144-67.552 67.328-67.552h77.216v-52.832c0-37.184 30.4-67.328 67.584-67.328s67.552 30.112 67.552 67.328v52.832h81.088c37.184 0 67.296 30.368 67.296 67.552 0 37.12-30.112 67.52-67.296 67.52h-81.088v78.528c160.832 29.28 284.992 171.36 284.992 341.568zM312.096 613.152c0 117.152 95.296 212.384 212.384 212.384 117.152 0 212.384-95.232 212.384-212.384 0-117.12-95.232-212.416-212.384-212.416-117.12 0-212.384 95.296-212.384 212.416z" />
<glyph unicode="&#xe622;" d="M77.824-19.2c0-21.632 17.504-39.168 39.136-39.168h139.872c21.632 0 39.168 17.536 39.168 39.168v20.288h455.2v-20.288c0-21.632 17.504-39.168 39.136-39.168h139.808c21.664 0 39.2 17.536 39.2 39.168v20.288c26.56 0 48.096 21.536 48.096 48.096v650.592c0 48.608-39.392 88-88.032 88h-183.36v80.352c0 48.608-39.392 88-88 88h-308.352c-45.792 0-82.88-37.12-82.88-82.912v-85.44h-166.272c-48.608 0-88-39.392-88-88v-633.408c0-36.032 29.216-65.28 65.28-65.28v-20.288zM352.672 827.616c0 22.592 18.304 40.896 40.896 40.896h225.632c22.624 0 40.896-18.304 40.896-40.896v-39.84h-307.456l0.032 39.84zM309.696 419.488c0 29.856 24.128 53.984 53.952 53.984h76.608v76.608c0 29.824 24.128 53.952 53.952 53.952h24.384c29.792 0 53.984-24.128 53.984-53.952v-76.608h76.576c29.792 0 53.952-24.128 53.952-53.984v-22.624c0-29.824-24.16-53.984-53.952-53.984h-76.576v-78.272c0-29.824-24.192-53.984-53.984-53.984h-24.384c-29.792 0-53.952 24.16-53.952 53.984v78.272h-76.608c-29.792 0-53.952 24.16-53.952 53.984v22.624z" />
<glyph unicode="&#xe623;" d="M598.080 120.992c-47.808-58.816-120.992-96.384-203.552-96.384-144.064 0-259.36 117.76-259.36 261.056 0 84.832 45.984 160.16 107.52 207.776v89.312c-104.128-56.512-184.8-167.232-184.8-295.872 0-185.664 150.912-339.168 337.632-339.168 120.544 0 225.12 66.144 284.704 157.728-4.384 9.984-9.344 19.648-14.144 29.408-22.592-5.28-45.216-9.856-68-13.856zM526.976 840.16c0-66.186-53.955-119.84-120.512-119.84s-120.512 53.654-120.512 119.84c0 66.186 53.955 119.84 120.512 119.84s120.512-53.654 120.512-119.84zM929.728 48.928l-125.856 291.168c-14.752 34.112-51.808 52.8-88.032 44.544l-253.504-58.4-0.288 272.544c-0.064 42.56-34.56 77.76-77.088 77.76 0 0-0.064 0-0.096 0-42.56 0-76.992-35.36-76.992-77.888l0.384-368.896c0-23.456 10.752-45.856 29.12-60.448 18.368-14.624 42.432-20.224 65.216-14.912l285.28 65.664 100.352-232.224c12.608-29.12 40.96-46.528 70.784-46.528 10.208 0 20.608 2.016 30.56 6.336 39.072 16.832 57.024 62.208 40.16 101.28z" />
<glyph unicode="&#xe624;" d="M602.912 186.592c-5.888-15.36-21.248-24.928-37.6-23.2-16.352 1.6-29.632 13.952-32.448 30.112l-29.6 172.512-2.528-15.104v-0.032l-30.784-169.12c-3.104-17.216-18.24-29.952-35.712-29.952-0.128 0-0.288 0-0.416 0-17.344 0-32.256 12.064-35.744 29.088l-28.832 140.704-7.328-12c-6.72-10.656-18.4-17.344-30.976-17.344h-202.784c74.688-83.424 192.896-181.376 379.968-279.040 0.288-0.544 0.736-0.8 1.408-0.768 187.936 97.824 313.024 196.128 387.936 279.808h-254.080l-40.48-105.664zM1024.288 542.080v0.32c0.864 8.832 1.344 17.728 1.344 26.752 0 148.096-120 268.064-268.096 268.064-108.992 0-202.816-65.12-244.704-158.56v0c-41.92 93.44-135.712 158.528-244.736 158.528-148.064 0.032-268.096-120-268.096-268.064 0-9.056 0.448-18.016 1.344-26.848l-1.344-0.48c0 0 0-71.2 71.168-176.928h239.52l45.024 72.48c7.936 12.608 22.848 19.296 37.408 16.768 14.72-2.656 26.304-13.92 29.312-28.512l9.088-44.48 35.328 195.648c3.36 11.872 8.64 31.872 25.76 33.568 0.032 0.096 0.032 0.192 0.064 0.256 3.488 1.152 7.2 1.984 11.008 1.984 0.064 0 0.096 0 0.128 0 13.312 0 28.672-8.256 34.496-25.28h-0.064c0.64-1.76 1.152-3.52 1.44-5.44l42.464-244.992 2.016 4.928c5.376 14.112 18.944 23.072 34.112 23.072h336.16c71.2 105.728 71.2 176.928 71.2 176.928l-1.344 0.288zM275.712 778.112c24.288 0 44-19.648 44-43.968 0-24.288-19.712-43.968-44-43.968s-43.936 19.68-43.936 43.968c0 24.32 19.648 43.968 43.936 43.968zM161.088 503.008c5.376-19.424-5.984-39.552-25.376-44.928-3.264-0.928-6.56-1.344-9.792-1.344-15.968 0-30.624 10.56-35.168 26.72-6.688 24.096-9.888 46.112-10.688 66.176-3.744 103.232 59.232 153.536 62.432 156.032 15.936 12.288 38.816 9.472 51.2-6.528 12.256-15.808 9.504-38.496-6.112-50.944-2.4-1.984-35.168-30.528-34.56-91.84v0c0.16-15.616 2.496-33.344 8.064-53.344z" />
<glyph unicode="&#xe625;" d="M202.976 518.624h130.976c11.68 0 22.528 6.144 28.768 16l9.856 15.712 29.728-144.544c3.264-15.84 17.216-25.056 33.408-25.056 0.128 0 0.256 0 0.384 0 16.32 0 30.272 9.792 33.152 25.888l34.976 191.328 31.456-180.864c2.624-15.168 15.072-26.592 30.368-28 15.232-1.92 29.728 7.648 35.104 22.048l40.576 107.456h209.12c18.816 0 34.112 14.848 34.112 33.728 0 18.816-15.296 33.632-34.112 33.632h-232.672c-14.144 0-26.848-9.088-31.872-22.368l-4.768-12.896-43.040 246.88c-2.816 16.32-16.928 26.592-33.472 26.592-0.032 0-0.064 0-0.128 0-16.48 0-30.592-10.080-33.536-26.4l-37.664-206.72-11.136 54.656c-2.784 13.632-13.568 24.192-27.296 26.688-13.6 2.368-27.456-3.584-34.944-15.296l-45.088-71.136h-112.256c-18.848 0-34.112-14.816-34.112-33.632 0-18.848 15.264-33.696 34.112-33.696zM933.792 233.472h39.2c28.48 0 48.544 23.744 48.544 52.352v618.4c0 28.48-20.064 49.984-48.544 49.984h-927.712c-28.416 0-45.28-21.536-45.28-49.984v-618.4c0-28.608 16.864-52.352 45.28-52.352h42.464v-26.592h-28.736c-29.152 0-52.768-23.616-52.768-52.768v-167.584c0-22.816 18.496-41.312 41.28-41.312h926.4c22.816 0 41.312 18.496 41.312 41.312v179.104c0 22.816-18.496 41.28-41.312 41.28h-40.16v26.56zM97.12 782.944c0 36.608 29.696 66.272 66.272 66.272h686.912c36.576 0 66.24-29.664 66.24-66.272v-386.080c0-36.576-29.664-66.24-66.24-66.24h-686.912c-36.576 0-66.272 29.664-66.272 66.24v386.080zM509.184 61.76c0-11.552-9.376-20.96-20.96-20.96h-366.976c-11.584 0-20.96 9.408-20.96 20.96v25.408c0 11.584 9.376 20.96 20.96 20.96h366.976c11.584 0 20.992-9.376 20.992-20.96v-25.408zM719.136 61.76c0-11.552-9.376-20.96-20.96-20.96h-73.984c-11.584 0-20.96 9.408-20.96 20.96v25.408c0 11.584 9.376 20.96 20.96 20.96h73.984c11.584 0 20.992-9.376 20.992-20.96v-25.408zM919.68 61.76c0-11.552-9.376-20.96-20.96-20.96h-75.584c-11.584 0-20.96 9.408-20.96 20.96v25.408c0 11.584 9.376 20.96 20.96 20.96h75.552c11.584 0 20.992-9.376 20.992-20.96v-25.408zM669.984 206.88h-317.472v26.592h318.048v-26.592h-0.576z" />
<glyph unicode="&#xe626;" d="M1017.152 533.408c0.864 8.64 1.312 17.44 1.312 26.304 0 145.408-117.856 263.328-263.296 263.328-107.040 0-199.168-63.968-240.32-155.712-41.152 91.776-133.28 155.712-240.32 155.712-145.408 0-263.264-117.92-263.264-263.328 0-8.864 0.448-17.664 1.28-26.304 0 0 5.152-259.264 505.536-520.096v0c500.32 260.832 499.072 520.096 499.072 520.096zM282.016 765.024c23.904 0 43.232-19.328 43.232-43.2s-19.328-43.2-43.232-43.2-43.136 19.296-43.136 43.2c-0.032 23.84 19.264 43.2 43.136 43.2zM146.976 441.792c-4.032-1.12-8.128-1.664-12.096-1.664-19.744 0-37.856 13.088-43.392 32.992-6.784 24.16-9.984 46.368-10.816 66.592-4.032 106.464 61.568 158.816 64.832 161.408 19.712 15.232 48.032 11.648 63.2-8.032 15.168-19.488 11.744-47.36-7.328-62.72-2.336-1.952-30.784-27.52-30.592-82.24 0.096-14.752 2.208-31.616 7.488-50.784 6.688-24.032-7.36-48.864-31.296-55.552z" />
<glyph unicode="&#xe627;" d="M607.232 679.392c0 15.328-12.448 27.776-27.808 27.776h-80.096c-15.328 0-27.776-12.448-27.776-27.776v-76.224h-80.736c-15.328 0-27.776-12.448-27.776-27.776v-80.032c0-15.328 12.448-27.808 27.776-27.808h80.736v-80.736c0-15.328 12.448-27.808 27.776-27.808h80.096c15.328 0 27.808 12.48 27.808 27.808v80.704h76.192c15.328 0 27.808 12.48 27.808 27.808v80.032c0 15.328-12.448 27.776-27.808 27.776h-76.192v76.256zM541.632 960c-220.64 0-400.16-179.456-400.16-400.064 0-294.944 349.216-591.424 364.064-603.904 19.648-16.512 48-17.568 68.864-2.592 14.976 10.784 367.328 268.16 367.328 606.496 0 220.608-179.52 400.064-400.096 400.064zM586.944 110.848c-24.032-22.496-61.6-21.664-84.608 1.888-105.472 107.744-248.64 289.344-248.64 447.232 0 158.688 129.184 287.872 287.936 287.872 158.688 0 287.872-129.184 287.872-287.872-0.032-191.232-147.616-360.224-242.56-449.12z" />
<glyph unicode="&#xe628;" d="M179.264 959.68c-90.176 0-163.264-73.088-163.264-163.264v-696.768c0-90.176 73.088-163.296 163.264-163.296h665.44c90.176 0 163.296 73.12 163.296 163.296v696.768c0 90.176-73.12 163.264-163.296 163.264h-665.44zM740.672 211.104c0-22.56-18.304-40.864-40.864-40.864h-43.616c-22.56 0-40.832 18.304-40.832 40.864v190.976h-206.752v-190.976c0-22.56-18.304-40.864-40.864-40.864h-43.616c-22.56 0-40.832 18.304-40.832 40.864v473.824c0 22.592 18.272 40.864 40.832 40.864h43.584c22.592 0 40.864-18.272 40.864-40.864v-172.192h206.752v172.192c0 22.592 18.272 40.864 40.832 40.864h43.584c22.592 0 40.864-18.272 40.864-40.864v-473.824z" />
<glyph unicode="&#xe629;" d="M512 949.728c-276.672 0-501.696-225.056-501.696-501.696 0-276.672 225.024-501.728 501.696-501.728 276.608 0 501.664 225.056 501.664 501.728 0 276.64-225.056 501.696-501.664 501.696zM512 26.176c-232.64 0-421.856 189.216-421.856 421.856 0 232.576 189.216 421.856 421.856 421.856 232.608 0 421.824-189.28 421.824-421.856 0-232.64-189.216-421.856-421.824-421.856zM626.048 553.952v161.216c0 27.776-22.496 50.24-50.24 50.24h-108.704c-27.744 0-50.208-22.496-50.208-50.24v-161.216h-161.28c-27.744 0-50.208-22.496-50.208-50.24v-110.976c0-27.744 22.464-50.24 50.208-50.24h161.248v-161.216c0-27.744 22.464-50.24 50.208-50.24h108.704c27.744 0 50.24 22.496 50.24 50.24v161.216h161.216c27.744 0 50.24 22.496 50.24 50.24v110.976c0 27.776-22.496 50.24-50.24 50.24h-161.184z" />
<glyph unicode="&#xe62a;" d="M964.672 667.936c19.328 0 35.008 15.68 35.008 35.008v10.56c0 19.328-15.68 35.008-35.008 35.008l-291.392 0.096v167.936c0 24.128-19.552 43.68-43.68 43.68h-227.584c-25.184 0-45.6-20.416-45.6-45.632v-166.112h-291.424c-19.328 0-35.008-15.68-35.008-35.008v-10.56c0-19.328 15.68-35.008 35.008-35.008h57.888v-320.96h-57.888c-19.328 0-35.008-15.68-35.008-35.008v-10.592c0-19.328 15.68-35.008 35.008-35.008h57.888v-295.488c0-19.328 15.68-35.008 35.008-35.008h253.184v203.52c0 22.624 18.336 40.96 40.96 40.96h125.664c22.624 0 40.992-18.336 40.992-40.96v-203.52h254.528c19.328 0 35.008 15.68 35.008 35.008v295.488h56.512c19.328 0 35.008 15.68 35.008 35.008v10.592c0 19.328-15.68 35.008-35.008 35.008h-56.512v320.992h56.448zM391.936 879.040c0 25.216 20.416 45.632 45.6 45.632h155.936c25.216 0 45.632-20.416 45.632-45.632v-130.56h-247.2v130.56zM753.952 525.856c-13.632 0-24.672 11.072-24.672 24.704v51.712c0 13.632 11.040 24.704 24.672 24.704h59.936c13.632 0 24.704-11.040 24.704-24.704v-51.712c0-13.632-11.072-24.704-24.672-24.704h-59.968zM813.888 464.384c13.632 0 24.672-11.040 24.672-24.704v-51.68c0-13.632-11.072-24.672-24.672-24.672h-59.936c-13.632 0-24.672 11.072-24.672 24.672v51.68c0 13.632 11.040 24.704 24.672 24.704h59.936zM648.608 464.384c13.632 0 24.672-11.040 24.672-24.704v-51.68c0-13.632-11.072-24.672-24.672-24.672h-408.192c-13.632 0-24.672 11.072-24.672 24.672v51.68c0 13.632 11.040 24.704 24.672 24.704h408.192zM240.416 525.856c-13.632 0-24.672 11.072-24.672 24.704v51.712c0 13.632 11.040 24.704 24.672 24.704h226.496c13.632 0 24.704-11.040 24.704-24.704v-51.712c0-13.632-11.072-24.704-24.672-24.704h-226.528zM575.040 525.856c-13.632 0-24.672 11.072-24.672 24.704v51.712c0 13.632 11.040 24.704 24.672 24.704h73.536c13.632 0 24.704-11.040 24.704-24.704v-51.712c0-13.632-11.072-24.704-24.672-24.704h-73.568zM324.992 102.272c0-12.736-10.304-23.040-23.040-23.040h-63.2c-12.704 0-23.008 10.304-23.008 23.040v55.040c0 12.704 10.304 23.008 23.008 23.008h63.2c12.736 0 23.040-10.304 23.040-23.008v-55.040zM838.592 102.272c0-12.736-10.304-23.040-23.040-23.040h-63.232c-12.736 0-23.008 10.304-23.008 23.040v55.040c0 12.704 10.304 23.008 23.008 23.008h63.232c12.704 0 23.040-10.304 23.040-23.008v-55.040zM539.424 852.288h-49.152v50.528h-30.048v-132.48h30.048v56h49.152v-56h30.080v132.48h-30.080z" />
<glyph unicode="&#xe62b;" d="M715.264 415.296h265.344c21.12 0 38.24 17.12 38.24 38.24v88.928c0 21.12-17.12 38.208-38.24 38.208h-206.368v69.728c0 21.12-17.12 38.208-38.24 38.208h-425.184c-20.64 0-37.568-16.352-38.24-36.992l-0.128-4.672-151.136 139.296c-7.456 6.88-17.376 10.496-27.52 10.080s-19.712-4.864-26.592-12.352l-20.608-22.496c-11.968-13.024-11.104-33.28 1.888-45.28l146.624-135.488h-159.488c-21.12 0-38.24-17.088-38.24-38.208v-88.928c0-21.12 17.12-38.24 38.24-38.24h255.488l140.96-140.64-64.8-64.672c-12.96 4.896-26.944 7.712-41.6 7.712-65.952 0-119.616-53.664-119.616-119.552 0-65.984 53.664-119.616 119.616-119.616 65.984 0 119.648 53.664 119.648 119.616 0 14.336-2.624 27.968-7.264 40.672l65.12 65.12 65.12-65.12c-4.608-12.736-7.264-26.336-7.264-40.672 0-65.952 53.696-119.648 119.68-119.648 65.952 0 119.616 53.728 119.616 119.648s-53.664 119.648-119.616 119.648c-14.656 0-28.608-2.816-41.568-7.584l-64.832 64.448 140.96 140.608zM325.664 45.568c-28.992 0-52.576 23.584-52.576 52.608 0 28.992 23.584 52.576 52.576 52.576 29.056 0 52.672-23.584 52.672-52.576-0.032-29.024-23.616-52.608-52.672-52.608zM733.28 98.144c0-28.992-23.616-52.608-52.608-52.608-29.024 0-52.608 23.584-52.608 52.608 0 28.992 23.584 52.576 52.608 52.576 28.992 0.032 52.608-23.552 52.608-52.576zM337.504 586.848c0.672 20.64 17.568 36.992 38.208 36.992h288.288c21.12 0 38.24-17.088 38.24-38.208v-4.864h-358.848l-5.888 5.824v0.256zM433.28 415.296h139.776l-69.92-69.952-69.856 69.952z" />
<glyph unicode="&#xe62c;" d="M819.776 361.152c-5.664-8.864-12.288-16.992-19.328-24.352-65.664-96.8-280-267.008-316.32-324.192-47.328-74.624-144.672-98.368-216.32-52.928-71.648 45.408-93.152 142.752-45.824 217.344 61.984 97.92 226.016 104.128 258.016 174.688 0 0.064 0 0.128 0 0.16 0 6.496 4.032 13.44 0.224 18.944-58.048 84.512-55.072 223.136-10.208 293.856 55.040 86.816 157.792 38.656 261.696-27.232 103.712-65.792 143.104-189.472 88.064-276.288zM577.184 763.168c45.504-28.864 108.672-10.976 140.928 40.032 32.32 51.008 21.632 115.744-23.872 144.672-45.568 28.768-108.608 10.848-140.96-40.16-32.32-50.976-21.664-115.744 23.904-144.544zM724.16 783.072c-16.608-26.176-12.096-58.752 9.984-72.768s53.472-4.16 70.048 22.016c16.608 26.144 12.096 58.72-9.984 72.736s-53.472 4.192-70.048-21.984zM804.512 703.68c-14.208-22.432-9.984-50.592 9.408-62.912 19.392-12.288 46.656-4.064 60.864 18.368s10.016 50.592-9.408 62.88c-19.36 12.32-46.656 4.096-60.864-18.336zM922.56 572.544c14.912 23.52 12.576 51.712-5.248 62.976-17.824 11.296-44.32 1.344-59.2-22.144s-12.576-51.712 5.248-63.008c17.824-11.264 44.32-1.344 59.2 22.176zM944.64 539.072c-13.184 8.352-32.8 1.024-43.872-16.416s-9.376-38.336 3.808-46.688 32.8-0.992 43.872 16.448c11.040 17.408 9.376 38.304-3.808 46.656z" />
<glyph unicode="&#xe62d;" d="M863.552 793.952c-61.088 119.616-181.6 178.016-339.712 164-241.92-21.056-336.704-255.328-340.64-265.216-9.6-24.512 2.4-52.064 26.848-61.728 24.416-9.696 52.032 2.24 61.888 26.56 3.104 7.744 77.888 189.568 260.256 205.44 119.808 10.4 203.008-27.296 246.464-112.416 66.336-129.792 23.744-346.912-94.912-484-133.472-154.336-263.84-238.496-356.064-230.784-48.864 3.968-89.632 33.792-124.672 91.2-13.728 22.464-43.072 29.6-65.568 15.776-22.432-13.76-29.504-43.072-15.808-65.504 51.296-84 117.952-129.952 198.208-136.576 6.464-0.544 12.928-0.832 19.456-0.832 162.976 0.064 329.76 163.936 416.576 264.352 144.16 166.656 191.488 425.728 107.68 589.728zM324.544 391.392l-21.184-5.856-9.28-19.872c-34.72-74.368-49.792-173.984 21.856-209.856 7.2-3.584 15.072-5.408 22.816-5.408 17.472 0 34.528 8.928 42.656 25.28 11.808 23.488 3.776 50.784-19.776 62.528-4.512 9.248 0.96 39.968 11.36 68.672 51.36 18.72 86.496 48.896 104.672 89.76 0.896-0.032 1.76-0.128 2.656-0.128h94.624c-27.936-36.416-61.6-72.576-99.264-105.376-19.84-17.312-21.92-47.456-4.608-67.328 17.344-19.712 47.36-21.952 67.232-4.64 119.712 104.224 232.128 265.568 213.632 391.072-8.576 58.272-43.52 102.784-101.056 128.736-46.976 21.216-94.912 22.688-138.656 4-93.696-39.584-137.664-155.424-142.368-168.544l-7.808-21.696 12.16-19.584c7.072-11.392 30.72-60.992 17.344-95.328-8.032-20.672-30.592-36.288-67.008-46.432zM549.44 655.2c19.456 8.352 39.264 7.264 62.24-3.072 27.552-12.448 42.144-30.176 45.952-55.776 4.16-28.32-4.672-64.896-23.52-104.896-3.424 0.864-7.040 1.312-10.72 1.312h-134.752c-4.288 27.328-13.44 51.296-21.152 67.776 14.432 30.336 44 78.656 81.952 94.656z" />
<glyph unicode="&#xe62e;" d="M1009.184 475.616c-8.896 12.32-222.016 301.856-495.52 301.856s-486.624-289.568-495.552-301.856c-11.968-16.48-11.968-38.784 0-55.232 8.928-12.384 222.048-301.888 495.552-301.888 273.536 0 486.624 289.536 495.52 301.888 11.968 16.448 11.968 38.784 0 55.232zM435.072 509.44c-16.992-24-20.96-55.264-11.776-93.024 6.144-25.28-9.312-50.624-34.56-56.768-3.712-0.928-7.488-1.248-11.136-1.248-21.184 0-40.416 14.432-45.632 35.872-20.96 86.24 5.856 142.944 32 176.16 35.744 45.408 91.328 68.96 125.536 68.96 0.064 0 0.096 0 0.096 0 25.952 0 47.008-20.16 46.944-46.112-0.064-25.696-20.736-46.048-46.304-46.496-8.32-0.864-36.8-11.456-55.168-37.344zM611.424 287.424c-32.608 0-59.008 26.336-59.008 58.944 0 32.64 26.4 59.072 59.008 59.072 32.576 0 59.008-26.432 59.008-59.072-0.032-32.576-26.464-58.944-59.008-58.944zM116.288 448c41.984 49.888 139.872 154.304 261.024 205.696-70.080-43.808-116.704-121.632-116.704-210.4 0-73.6 32.096-139.712 83.072-185.088-105.504 54.624-189.376 144.64-227.392 189.792zM658.656 245.952c59.488 45.312 97.952 116.832 97.952 197.344 0 97.472-56.224 181.76-138.016 222.272 135.488-45.088 247.008-163.552 292.544-217.632-40.928-48.704-135.136-149.504-252.48-201.984z" />
<glyph unicode="&#xe62f;" d="M545.536 540.736v299.008c0 66.336-53.472 120.256-119.776 120.256-49.856 0-92.512-30.464-110.752-73.76-3.36 0.544-6.528 0.864-10.112 0.864-8.096 0-15.776-1.568-22.944-4.448l-66.176 39.36c-13.632 8.064-31.232 3.616-39.328-10.016l-9.088-15.232c-8.096-13.632-3.616-31.264 10.016-39.36l66.272-39.456c0.416-3.808 1.216-7.488 2.272-11.104l-66.816-94.176c-4.448-6.24-6.208-13.952-4.896-21.472 1.28-7.488 5.504-14.208 11.744-18.592l14.848-10.464c12.896-9.088 30.72-6.048 39.904 6.816l66.016 92.48v-287.2l-21.184-7.584c-55.104-19.84-91.776-72.064-91.776-130.592v-117.728c0-46.144 13.824-91.296 39.68-129.504l102.336-151.296h508.288l48.672 276.128c22.944 130.144-58.88 255.84-187.168 287.552l-160.032 39.52zM348.672 781.952l150.528 96.864c6.304-11.648 10.816-24.992 10.816-39.136v-30.144l-167.84-116.48v83.648c3.264 1.664 4.672 3.392 6.496 5.248zM510.016 653.056l-62.624 66.336 62.624 44.128v-110.464zM342.176 647.040l72.288 50.496 72.256-75.808h-144.544v25.312zM426.080 922.336c17.728 0 34.176-5.6 47.552-15.136l-107.872-69.792c-2.432 12.192-8.448 23.104-16.896 31.584 11.84 31.136 42.016 53.344 77.216 53.344z" />
<glyph unicode="&#xe630;" d="M399.68 629.632c0-39.075-31.677-70.752-70.752-70.752s-70.752 31.677-70.752 70.752c0 39.075 31.677 70.752 70.752 70.752s70.752-31.677 70.752-70.752zM479.648 598.784c-15.808 0.768-31.264-4.928-42.72-15.84-11.488-10.912-18.016-26.048-18.016-41.888v-66.656h385.408c6.048 0 11.456 3.84 13.472 9.6 1.984 5.728 0.16 12.096-4.576 15.872-41.952 33.472-139.744 89.088-333.568 98.912zM364.288 486.368c0 18.144-12.608 33.888-30.368 37.824l-129.76 28.736c-6.56 1.44-13.376-0.16-18.624-4.352-5.248-4.224-8.256-10.56-8.256-17.248v-54.848h187.008v9.888zM971.552 268.32v279.488c0 20.32-16.416 36.8-36.768 36.8-20.32 0-36.736-16.512-36.736-36.8v-111.2h-775.424v295.328c0 20.416-16.448 36.8-36.768 36.8-20.352 0-36.768-16.416-36.768-36.8v-463.616c-27.584-13.856-46.592-42.368-46.592-75.328 0-46.464 37.792-84.224 84.192-84.224s84.192 37.76 84.192 84.224c0 33.6-19.776 62.656-48.256 76.16v66.56h775.392v-66.56c-28.512-13.504-48.288-42.56-48.288-76.16 0-46.464 37.792-84.224 84.192-84.224 46.432 0 84.192 37.76 84.192 84.224 0 32.896-18.976 61.472-46.56 75.328zM134.048 192.992c0-26.080-21.216-47.328-47.328-47.328s-47.36 21.248-47.36 47.328c0 10.816 3.648 20.8 9.76 28.768v-5.44c0-20.416 16.416-36.864 36.768-36.864 20.32 0 36.768 16.48 36.768 36.864v7.456c7.104-8.256 11.392-19.040 11.392-30.784zM933.92 145.664c-26.112 0-47.328 21.248-47.328 47.328 0 11.744 4.288 22.528 11.424 30.816v-7.456c0-20.416 16.416-36.864 36.736-36.864 20.352 0 36.768 16.48 36.768 36.864v5.376c6.112-7.904 9.728-17.92 9.728-28.704 0.032-26.112-21.216-47.36-47.328-47.36z" />
<glyph unicode="&#xe631;" d="M720.384 764.512v19.776c0 28.128-22.784 50.912-50.912 50.912h-69.792c6.272 11.808 9.856 25.024 9.856 39.392 0 47.136-38.368 85.248-85.472 85.248-47.136 0-85.472-38.048-85.472-85.152 0-14.4 3.584-27.712 9.856-39.52h-56.16c-28.096 0-50.88-22.784-50.88-50.912v-19.776h-118.208c-30.176 0-54.624-24.448-54.624-54.624v-719.424c0-30.176 24.448-54.656 54.624-54.656h615.328c30.176 0 54.624 24.48 54.624 54.656v719.456c0 30.176-24.48 54.624-54.624 54.624h-118.144zM473.152 874.592c0 28.064 22.848 50.688 50.912 50.688 28.096 0 50.944-22.496 50.944-50.56 0-16.128-7.488-31.648-19.2-39.52h-63.456c-11.68 7.872-19.2 23.264-19.2 39.392zM237.28 643.904c0 28.672 23.232 51.904 51.904 51.904h52.192c0-18.464 14.944-33.44 33.376-33.44h312.16c18.464 0 33.408 14.976 33.408 33.44h52.16c28.672 0 51.936-23.232 51.936-51.904v-289.792h-165.824c-14.368 0-27.232-8.96-32.32-22.4l-5.216-13.76-44.096 252.672c-2.848 16.512-17.184 26.976-33.92 26.976-0.096 0-0.096 0-0.128 0-16.704 0-31.040-10.304-33.984-26.752l-38.656-212.352-11.648 57.088c-2.816 13.824-13.728 24.448-27.584 27.008-13.824 2.56-27.904-3.744-35.424-15.616l-46.112-72.896h-112.224v289.824zM291.904 4.544c-30.176 0-54.624 24.48-54.624 54.656v226.176h131.168c11.808 0 22.816 7.136 29.12 17.056l10.4 17.44 30.496-147.744c3.328-16.128 17.44-24.16 33.856-24.16 0.128 0 0.256 0 0.384 0 16.576 0 30.688 8.576 33.6 24.928l35.968 195.52 32.32-186.080c2.688-15.328 15.296-27.040 30.784-28.512 15.712-1.44 30.112 7.488 35.616 22.080l41.472 109.472h141.952v-226.176c0-30.176-24.48-54.656-54.656-54.656h-477.856z" />
<glyph unicode="&#xe632;" d="M1019.264 326.528c0 182.784-209.216 480.192-337.76 480.192-61.344 0-93.664-68.096-110.24-158.816-9.984 11.36-15.84 20.128-21.12 26.176v233.056c0 22.592-17.12 40.896-39.68 40.896s-39.648-18.304-39.648-40.896v-238.272c-5.28-10.624-11.936-20.352-20.096-29.632-16.288 93.504-48.384 164.32-110.944 164.32-128.576 0-337.92-297.408-337.92-480.16 0-182.784-24.416-330.944 104.128-330.944 128.512 0 361.216 148.16 361.216 330.944 0 64.48-0.032 143.2-5.536 218.112 19.744 13.728 37.888 29.408 53.152 47.552 11.936-13.216 26.752-27.872 44.64-42.848-5.6-75.424-5.6-154.72-5.6-219.68 0-182.784 232.704-330.976 361.28-330.976 128.416 0 104.128 148.192 104.128 330.976z" />
<glyph unicode="&#xe633;" d="M940.704 943.872c-3.616 0.224-252.928-2.592-252.928-2.592-44.416-0.544-80-43.936-79.392-88.416 0.544-44.064 36.512-86.336 80.48-86.336 0.288 0 0.672 0 1.056 0l46.464 7.552-84.704-81.344c-68.896 48.032-150.528 75.872-236.256 75.872-110.816 0-214.976-42.304-293.344-120.672-161.76-161.76-161.76-424.544 0-586.304 78.368-78.336 182.528-121.28 293.344-121.28s214.944 43.328 293.312 121.632c140.672 140.64 162.944 357.92 59.104 518.624l94.752 90.56v-56.192c0-44.512 35.872-80.544 80.32-80.544 44.416 0 80.352 36.032 80.352 80.544v249.12c-0.032 21.472-3.488 74.912-82.56 79.776zM594.88 175.936c-47.872-47.936-111.616-74.4-179.456-74.4s-131.584 26.464-179.488 74.4c-99.040 98.944-99.040 260.064 0 359.072 47.904 47.936 111.648 74.4 179.488 74.4s131.584-26.464 179.456-74.4c99.040-99.008 99.040-260.128 0-359.072z" />
<glyph unicode="&#xe634;" d="M506.656 958.944c-151.68 0-276.864-123.424-276.864-275.104v-471.648c0-151.712 125.184-275.136 276.864-275.136 151.712 0 276.896 123.424 276.896 275.136v471.648c-0.032 151.68-125.216 275.104-276.896 275.104zM310.528 673.984c0 124.992 80.48 179.136 122.912 190.336 21.024 5.536 42.656-7.072 48.16-28 5.472-20.832-5.952-42.144-26.624-47.904-7.008-2.080-63.68-22.304-63.68-114.432v-147.392c0-21.696-18.656-39.296-40.384-39.296-21.664 0-40.384 17.6-40.384 39.296v147.392zM702.752 212.192c0-108.352-87.776-196.512-196.128-196.512-108.32 0-196.128 88.16-196.128 196.512v165.344c0 31.104 25.216 56.288 56.288 56.288h279.648c31.104 0 56.32-25.216 56.32-56.288v-165.344z" />
<glyph unicode="&#xe635;" d="M986.048 659.712c-23.968 15.2-55.616 8.128-70.816-15.776-0.256-0.32-3.84-5.856-10.624-14.624l-305.952 237.44c2.976 3.872 4.992 6.24 5.568 6.976 18.688 21.216 16.672 53.536-4.576 72.256-21.696 18.752-53.728 16.704-72.384-4.544-6.656-7.424-138.496-161.088-100.928-368.32 4.672-25.696 11.872-52.224 22.272-79.392l0.032-0.032c8.064-26.784 18.048-54.432 30.080-82.976-26.4 38.464-68.48 84.896-125.984 104.512-201.888-24.896-313.472-195.232-318.912-203.84-15.2-23.904-8.288-55.584 15.712-70.848 23.968-15.232 55.616-8.128 70.816 15.776 0.16 0.192 1.856 2.784 5.024 7.168l308.832-239.648c-16.768-21.216-14.208-52.064 6.368-70.208 21.6-18.784 53.696-16.704 72.416 4.544 6.528 7.392 138.784 161.472 100.736 369.184-4.672 25.44-11.84 51.68-22.208 78.56v0c-10.112 33.728-23.264 68.736-39.712 105.216-2.144 4.896-4.192 9.792-6.144 14.624-7.872 19.776-13.6 39.104-17.44 57.92l127.328-98.72c-24.672-1.984-50.944-1.024-78.688 3.808-4.256 0.768-8.416 1.376-12.576 2.080 22.176-38.016 55.136-82.112 98.176-107.872 214.752 15.456 333.728 196.992 339.328 205.888 15.2 23.904 8.288 55.584-15.744 70.848zM560.448 805.248l294.944-228.896c-7.072-6.432-14.784-12.96-23.040-19.424l-284.416 220.64c4.032 9.856 8.256 19.104 12.512 27.68zM458.752 411.52c7.104-1.28 14.112-2.368 21.056-3.456 2.688-6.464 5.6-12.992 8.544-19.552 13.984-30.944 22.336-60.896 26.56-89.536l-148.192 114.976c28.448 3.584 59.2 3.296 92.032-2.432zM474.304 83.968l-300.96 233.568c6.848 6.496 14.304 13.184 22.432 19.84l291.744-226.368c-4.256-9.728-8.768-18.816-13.216-27.040zM511.168 183.904l-252.192 195.68c6.848 3.584 13.952 7.040 21.216 10.24l235.072-182.336c-1.088-8.064-2.464-15.936-4.096-23.584zM523.264 678.72c0.8 8.256 1.952 16.352 3.328 24.224l240.832-186.912c-7.072-3.456-14.304-6.752-21.888-9.76l-222.272 172.448z" />
<glyph unicode="&#xe636;" d="M942.496 878.368c-67.488 67.488-130.848 81.632-172.192 81.632-33.184 0-54.656-8.992-58.56-10.816l-6.464-2.944-629.632-629.6 34.144-188.128c-1.344-1.088-2.592-2.24-3.872-3.488l-79.648-79.584c-23.008-23.008-23.008-60.256 0-83.2 11.488-11.52 26.528-17.216 41.568-17.216 15.072 0 30.112 5.696 41.664 17.216l79.616 79.584c1.216 1.248 2.4 2.528 3.488 3.872l188.096-34.144 629.664 629.632 2.976 6.4c2.016 4.512 48.704 111.232-70.848 230.784zM943.424 685.184l-589.12-589.184-164.256 29.92-29.92 164.256 318.272 318.272 55.456-55.456c3.84-3.84 8.832-5.76 13.888-5.76 5.024 0 9.984 1.92 13.888 5.76 7.616 7.648 7.616 20.064 0 27.744l-55.488 55.456 55.456 55.488 55.488-55.488c3.84-3.84 8.8-5.792 13.856-5.792 5.024 0 10.048 1.952 13.888 5.792 7.616 7.616 7.616 20.032 0 27.68l-55.456 55.52 55.456 55.456 55.456-55.456c3.808-3.84 8.832-5.792 13.888-5.792 4.96 0 9.984 1.984 13.856 5.824 7.616 7.616 7.616 20.032 0 27.712l-55.424 55.456 76.544 76.608c17.728 4.256 72.416 9.184 137.888-56.288 66.976-66.976 60.48-121.344 56.384-137.728zM240.992 291.2c-15.328-15.328-2.144-53.312 29.44-84.832 31.52-31.584 69.568-44.768 84.832-29.44l204.256 204.256-114.272 114.24-204.256-204.224z" />
<glyph unicode="&#xe637;" d="M319.136 399.968c0-0.288 0.128-27.616-19.744-46.816-9.088-8.8-24.576-19.328-46.88-19.328-10.496 0-18.976-8.448-18.976-18.976 0-10.496 8.512-19.008 18.976-19.008 35.008 0 59.2 16.352 73.28 30.016 32.096 31.008 31.328 73.152 31.296 75.008-0.32 10.4-9.472 18.4-19.328 18.4-10.432-0.256-18.752-8.864-18.624-19.296zM223.744 336.224c0-14.492-11.748-26.24-26.24-26.24s-26.24 11.748-26.24 26.24c0 14.492 11.748 26.24 26.24 26.24s26.24-11.748 26.24-26.24zM883.104 399.808c0.032-0.256 0.16-27.424-19.712-46.656-9.088-8.8-24.64-19.328-46.944-19.328-10.496 0-18.944-8.448-18.944-18.976 0-10.496 8.448-19.008 18.944-19.008 35.008 0 59.2 16.352 73.344 30.016 32.032 31.008 31.296 73.152 31.232 75.008-0.288 10.432-10.336 18.816-19.488 18.432-10.432-0.288-18.72-8.96-18.432-19.488zM787.68 336.224c0-14.492-11.748-26.24-26.24-26.24s-26.24 11.748-26.24 26.24c0 14.492 11.748 26.24 26.24 26.24s26.24-11.748 26.24-26.24zM797.44 636.928c-101.248 0-187.136-66.816-216.032-158.624-24.672 12.736-50.208 18.464-76.608 16.992-22.656-1.216-42.528-7.744-59.2-16.064-29.152 91.36-114.848 157.696-215.712 157.696-124.8 0-226.4-101.536-226.4-226.4 0-124.832 101.568-226.4 226.4-226.4 119.456 0 217.6 93.056 225.792 210.496 10.336 9.376 29.952 23.776 53.792 24.928 20.32 1.504 40.96-7.712 62.176-26.112 8.768-116.832 106.656-209.312 225.76-209.312 124.8 0 226.368 101.568 226.368 226.4 0.032 124.864-101.536 226.4-226.336 226.4zM229.92 260.096c-82.944 0-150.496 67.456-150.496 150.432 0 83.008 67.52 150.464 150.496 150.464 82.944 0 150.496-67.456 150.496-150.464 0-82.976-67.552-150.432-150.496-150.432zM797.44 260.096c-82.944 0-150.464 67.456-150.464 150.432 0 83.008 67.52 150.464 150.464 150.464 83.008 0 150.496-67.456 150.496-150.464 0-82.976-67.488-150.432-150.496-150.432z" />
<glyph unicode="&#xe638;" d="M904.096 546.816l-102.016 194.72 12.416 16.256c14.784 19.264 11.072 46.848-8.192 61.6-14.080 10.784-32.448 11.712-47.104 4l-40.896 78.016c-33.632 64.256-97.344 69.824-141.6 12.352l-175.968-228.448c-44.224-57.472-22.656-118.016 47.968-134.528l38.304-8.96c74.944 77.28 220.768 226.816 224 224.352 3.296-2.496-275.264-359.008-275.264-359.008-31.168 5.28-64.096-6.464-84.64-33.248l-226.912-296.8c-29.472-38.528-22.112-93.728 16.448-123.2 15.968-12.192 34.72-18.112 53.344-18.112 26.464 0 52.64 11.904 69.92 34.528l226.944 296.8c18.976 24.832 22.656 56.544 12.608 83.872l121.312 158.656 212.096-49.632c70.656-16.512 100.896 22.56 67.232 86.784z" />
<glyph unicode="&#xe639;" d="M854.24 852.544h-686.784c-92.16 0-167.456-73.76-167.456-165.92v-328.512c0-92.192 75.296-164.8 167.456-164.8h420.544l255.264-182.304c7.712-5.44 16.768-8.896 25.888-8.896 7.072 0 15.168 1.376 21.6 4.736 14.944 7.712 25.344 22.752 25.344 39.52v149.888c56.864 17.152 104.608 73.984 104.608 141.344v349.024c-0.032 92.16-74.24 165.92-166.464 165.92zM675.136 507.104c0-16.352-13.28-29.632-29.632-29.632h-70.4v-70.4c0-16.352-13.28-29.632-29.632-29.632h-70.368c-16.352 0-29.6 13.28-29.6 29.632v70.4h-70.4c-16.352 0-29.6 13.28-29.6 29.632v68.032c0 16.384 13.248 29.632 29.6 29.632h70.4v70.4c0 16.384 13.248 29.632 29.6 29.632h70.336c16.384 0 29.632-13.248 29.632-29.632v-70.4h70.4c16.352 0 29.632-13.248 29.632-29.632v-68.032z" />
<glyph unicode="&#xe63a;" d="M728.16 765.376v22.432c0 25.472-20.672 46.112-46.112 46.112h-75.68c6.304 11.392 9.856 25.504 9.856 39.84 0 47.136-38.336 85.536-85.44 85.536s-85.408-38.4-85.408-85.536c0-14.336 3.584-28.448 9.888-39.84h-62.080c-25.472 0-46.112-20.64-46.112-46.112v-22.432h-102.848c-38.624 0-69.92-31.328-69.92-69.952v-689.472c0-38.624 31.296-69.952 69.92-69.952h586.688c38.624 0 69.952 31.328 69.952 69.952v689.472c0 38.624-31.328 69.952-69.952 69.952h-102.752zM479.904 873.728c0 28.096 22.816 51.008 50.848 51.008 28.096 0 50.912-22.912 50.912-51.008 0-16.064-7.488-29.856-19.2-39.84h-63.392c-11.68 10.016-19.168 23.776-19.168 39.84zM830.944 47.552c0-23.744-19.264-43.008-43.008-43.008h-500.704c-23.744 0-43.008 19.264-43.008 43.008v604.864c0 23.776 19.264 43.008 43.008 43.008h59.776c0-18.912 15.328-34.272 34.24-34.272h312.608c18.944 0 34.272 15.328 34.272 34.272h59.776c23.744 0 43.008-19.264 43.008-43.008v-604.864zM433.952 540.16c0-33.561-27.207-60.768-60.768-60.768s-60.768 27.207-60.768 60.768c0 33.561 27.207 60.768 60.768 60.768s60.768-27.207 60.768-60.768zM718.944 574.080h-207.264c-19.072 0-34.56-15.2-34.56-34.272s15.456-34.272 34.56-34.272h207.296c19.072 0 34.528 15.2 34.528 34.272-0.032 19.072-15.488 34.272-34.56 34.272zM433.952 367.776c0-33.561-27.207-60.768-60.768-60.768s-60.768 27.207-60.768 60.768c0 33.561 27.207 60.768 60.768 60.768s60.768-27.207 60.768-60.768zM718.944 402.784h-207.264c-19.072 0-34.56-15.904-34.56-34.976s15.456-34.944 34.56-34.944h207.296c19.072 0 34.528 15.872 34.528 34.944-0.032 19.072-15.488 34.976-34.56 34.976zM433.952 183.552c0-33.561-27.207-60.768-60.768-60.768s-60.768 27.207-60.768 60.768c0 33.561 27.207 60.768 60.768 60.768s60.768-27.207 60.768-60.768zM718.944 218.656h-207.264c-19.072 0-34.56-15.904-34.56-34.976s15.456-34.944 34.56-34.944h207.296c19.072 0 34.528 15.904 34.528 34.944-0.032 19.072-15.488 34.976-34.56 34.976z" />
<glyph unicode="&#xe63b;" d="M409.152 498.048h-85.248c-10.208 0-19.904 0-29.152-0.832 9.664-57.28 52.608-204.64 237.856-206.784 3.040 0.704 6.144 0.608 9.088-0.224 30.816 0.032 185.888 12.128 223.488 201.248-18.88 4.512-40.224 6.592-64.384 6.592h-89.472c72.288 37.728 121.792 112.576 121.792 199.296 0 7.104-0.352 14.528-0.992 21.408h-126.080c18.464 19.232 31.104 44.096 35.008 71.68h71.968c-21.856 47.84-60.096 86.56-107.584 108.992-23.648 24.352-56.672 39.456-93.216 39.456-34.848 0-66.528-13.792-89.92-36.192-50.88-21.824-91.968-62.016-114.944-112.288h76.032c3.904-27.584 16.544-52.48 35.040-71.68h-130.176c-0.64-6.88-0.992-14.304-0.992-21.408 0-86.688 49.536-161.568 121.888-199.264zM512.224 902.592c51.712 0 93.792-42.080 93.792-93.824 0-51.712-42.080-93.76-93.792-93.76-51.744 0-93.824 42.016-93.824 93.76 0 51.776 42.080 93.824 93.824 93.824zM907.712 293.632c0 0 6.944 135.456-107.008 186.336-44.128-221.024-236.096-234.368-261.888-234.688-0.672-2.112-1.12-4.512-1.184-7.104-0.32-15.616 13.12-35.552 37.92-56.192 44.096-36.704 52.8-89.888 22.176-135.328-23.84-35.392-68.608-60.032-123.424-60.032-26.4 0-55.104 5.728-84.928 18.688-9.12-10.048-22.272-16.384-36.864-16.384-27.488 0-49.824 22.272-49.824 49.824 0 27.456 22.304 49.76 49.824 49.76 27.264 0 49.44-21.984 49.76-49.152 74.208-32.896 138.464-12.352 165.344 27.584 20.064 29.888 14.368 62.4-15.328 87.136-34.848 29.024-52 57.952-50.944 85.92 0.064 2.368 0.32 4.672 0.64 6.848-188.512 17.888-233.344 183.744-243.456 244.864-143.936-34.816-142.784-184.128-143.040-198.080l0.096-352.128h792.8l-0.672 352.128zM555.552 808.8c0-23.929-19.399-43.328-43.328-43.328s-43.328 19.399-43.328 43.328c0 23.929 19.399 43.328 43.328 43.328s43.328-19.399 43.328-43.328z" />
<glyph unicode="&#xe63c;" d="M906.592 560c-56.384 0-103.904-38.112-118.4-89.92l-146.112 9.088c-12.672 29.088-39.872 50.624-96.896 59.232 1.152 4.704 1.696 9.568 1.696 14.624 0 11.744-3.2 22.784-8.672 32.256h441.28c10.112 0 18.208 7.904 18.208 17.952 0 10.080-8.128 17.952-18.208 17.952h-461.44c-2.144 17.376-16.928 30.784-34.944 30.784-17.984 0-32.768-13.408-34.944-30.784h-415.776c-10.048 0-18.208-7.872-18.208-17.952 0-10.048 8.16-17.952 18.208-17.952h395.808c-5.6-9.472-8.8-20.512-8.8-32.256 0-4.768 0.576-9.408 1.536-13.888-141.664-20.224-317.92-146.144-317.92-245.664 0-87.648 96.8-122.336 212.8-131.584 0 0-3.712-59.040-3.456-60.544-54.112 6.752-55.072 34.752-54.976 38.496 0.672 9.856-6.784 18.464-16.672 19.296-9.184 0.992-18.816-6.624-19.68-16.64-0.192-2.464-1.472-24.608 16.672-45.344 17.696-20.128 46.784-31.392 86.496-33.376 11.808-0.576 26.144-0.832 42.24-0.832 60.288 0 144.992 3.584 209.472 6.848 1.504 0.064 2.976 0.16 4.448 0.224 48.48 2.464 84.512 4.704 88.352 4.96 10.048 0.576 17.632 9.216 17.088 19.296-0.672 9.984-8.256 17.6-19.328 17.056-0.864-0.064-30.016-1.888-71.552-4.032 0 0-3.136 107.808-3.584 109.28-1.504 5.248-1.088 5.248 0.416 0 32.224 26.464 52.512 62.496 59.328 109.312v0l146.208 55.968c20.256-40.096 61.632-67.712 109.568-67.712 67.776 0 122.848 55.168 122.848 122.944-0.032 67.776-55.328 122.912-123.104 122.912zM347.616 99.488c0.416 1.312 4.544 60.288 4.544 60.288 12.128-0.448 23.872-0.672 36.064-0.672 63.68 0 122.624 10.944 167.136 34.496v-0.032l2.72-88.192c-69.376-3.36-155.904-6.784-210.464-5.888zM558.72 321.536c0-12.992-10.528-23.52-23.52-23.52h-39.744v-38.016c0-12.992-10.528-23.52-23.52-23.52h-16.256c-12.992 0-23.488 10.528-23.488 23.52v38.016h-38.016c-12.992 0-23.488 10.528-23.488 23.52v16.256c0 12.992 10.496 23.488 23.488 23.488h38.016v39.744c0 12.992 10.496 23.488 23.488 23.488h16.224c12.992 0 23.52-10.528 23.52-23.488v-39.744h39.744c12.992 0 23.52-10.528 23.52-23.488v-16.256zM906.592 386.976c-16.832 0-31.744 8.384-40.8 21.12-0.032 0.064-0.096 0.128-0.128 0.192l26.592 10.208c8.16 3.136 13.536 10.944 13.536 19.648v4.768c0 11.104-8.672 20.32-19.744 21.024l-20.768 1.312c9.024 13.184 24.192 21.856 41.344 21.856 27.584 0 50.112-22.464 50.112-50.080-0.032-27.584-22.56-50.048-50.144-50.048z" />
</font>
</defs>
</svg>
